<?xml version="1.0" standalone="no"?>
<!DOCTYPE svg PUBLIC "-//W3C//DTD SVG 1.1//EN" "http://www.w3.org/Graphics/SVG/1.1/DTD/svg11.dtd" >
<svg xmlns="http://www.w3.org/2000/svg" xmlns:xlink="http://www.w3.org/1999/xlink" version="1.1">
<metadata></metadata>
<defs>
<font id="stick-a-roundstick-a-round" horiz-adv-x="890" >
<font-face units-per-em="2048" ascent="1638" descent="-410" />
<missing-glyph horiz-adv-x="512" />
<glyph horiz-adv-x="0" />
<glyph unicode="&#xd;" horiz-adv-x="682" />
<glyph unicode=" "  horiz-adv-x="512" />
<glyph unicode="&#x09;" horiz-adv-x="512" />
<glyph unicode="&#xa0;" horiz-adv-x="512" />
<glyph unicode="!" horiz-adv-x="412" d="M106 1330q0 214 118 214q34 0 57 -51t32 -138t12 -164t4 -170t1 -115q10 -200 10 -400v-12q0 -44 -2 -69t-10 -59t-27 -50t-51 -16q-24 0 -43 4t-32 16t-21 19t-14 32t-8 33t-6 42t-6 44q-10 72 -10 466v90q0 32 -1 90t-1 82q0 16 -1 54t-1 58zM116 78v2q0 44 37 92 t95 48q46 0 82 -48t36 -108q0 -70 -32 -106t-78 -36q-56 0 -98 43t-42 113z" />
<glyph unicode="&#x22;" horiz-adv-x="520" d="M66 1108q0 10 1 63t4 87t9 78t22 67t40 23q40 0 60 -22t24 -46t4 -66v-30v-32q0 -8 1 -43t1 -57v-6q0 -40 -1 -61t-5 -50t-16 -42t-30 -13q-114 0 -114 150zM304 1256v36q0 52 2 78t20 51t52 25q56 0 74 -38t18 -112q0 -14 -1 -45t-1 -47v-72q0 -124 -19 -156t-75 -32 q-68 0 -68 152v88q0 48 -2 72z" />
<glyph unicode="#" horiz-adv-x="1324" d="M46 474q0 76 36 103t112 27h84q20 0 26 20q28 64 44 206q0 2 2 10t2 10v2q0 24 -64 24q-8 0 -20 -1t-16 -1q-72 0 -132 12q-48 12 -48 94q0 30 23 59t53 35q84 18 158 18q10 0 31 1t31 3q38 2 46 44q18 100 52 240q14 60 62 60h2q6 0 11 -1t8 -3t6 -5t5 -6t5 -8t4 -8 t2 -10t2 -10t2 -10t1 -11v-32q0 -46 -18 -176q-2 -6 -2 -20q0 -22 20 -22q40 0 122 -4t122 -4q20 0 28 17t13 61t7 56q2 10 9 44t11 49t14 38t25 33t37 10q72 0 72 -130q0 -14 -1 -41t-1 -37q0 -2 -5 -38t-5 -46q0 -16 6 -20t24 -4h2h54q46 0 73 -3t57 -13t44 -33t14 -61 q0 -2 -1 -7t-1 -7q-2 -26 -31 -47t-57 -25q-34 -6 -94 -6h-6q-66 0 -112 -12q-22 -6 -28 -28q-2 -6 -13 -74t-19 -98v-6q0 -18 36 -18h8q58 0 92 -2t86 -10t79 -29t27 -55q0 -48 -34 -89t-84 -41q-30 -2 -109 -7t-119 -9q-24 -2 -31 -9t-15 -37q-4 -14 -23 -126t-48 -175 t-81 -63q-12 0 -24 6q-78 44 -78 112q0 20 40 172q18 78 18 84q0 22 -22 22h-6q-26 -2 -80 -7t-84 -7q-32 -2 -38 -40q-6 -36 -18 -107t-18 -107q-16 -82 -45 -107t-103 -25h-4h-2q-30 6 -45 23t-18 35t-3 50v20q0 34 9 77t24 91t19 70q4 12 4 18q0 20 -36 24q-4 0 -25 1 t-31 2t-30 4t-31 7t-23 10t-18 14t-6 20zM498 672q0 -26 3 -34t19 -8q30 0 100 6t92 6q28 0 46 100q4 16 11 49t9 49q0 20 -3 26t-19 8q-124 10 -150 10q-32 0 -48 -2q-38 -2 -40 -42q-2 -24 -10 -77t-10 -71v-20z" />
<glyph unicode="$" horiz-adv-x="768" d="M48 540q0 54 28 82q56 56 98 56q20 0 36 -25t18 -47q10 -106 49 -192t113 -92q70 0 99 24t29 98q0 90 -22 154t-57 99t-78 60t-86 46t-78 48t-57 75t-22 118q0 26 7 50t14 41t25 37t28 30t36 28t35 23t38 22t33 19v16q0 2 -6 27t-6 43q0 36 24 58q42 34 76 34h4 q44 -2 52 -40q4 -18 4 -54v-34q0 -26 -2 -38q10 -6 22 -14t40 -24t48 -30q36 -26 68 -73t32 -89q0 -48 -50 -70q-42 -18 -66 -18q-32 0 -47 22t-20 48t-28 48t-69 22q-52 0 -81 -31t-29 -83q0 -32 45 -69t110 -79t129 -95t109 -133t45 -174q0 -218 -256 -316h-2l-4 -52 q-2 -66 -14 -86t-54 -20q-50 0 -66 23t-16 65t-8 58q-10 22 -63 55t-69 51q-50 58 -94 142t-44 156z" />
<glyph unicode="%" horiz-adv-x="920" d="M46 1212q0 98 73 173t169 75q68 0 123 -64t55 -162v-4q-4 -100 -66 -177t-162 -77q-96 0 -144 75t-48 161zM84 50v10q10 110 224 575t252 591q2 6 16 50t24 67t28 56t41 49t49 16q34 0 59 -24t25 -58q0 -26 -6 -54q-18 -84 -106 -302q-54 -138 -190 -450t-220 -480 q-2 -6 -8 -16q-22 -44 -32 -62t-26 -33t-32 -15q-40 0 -66 14q-32 18 -32 66zM214 1202q0 -16 13 -35t29 -19q22 0 43 24t21 56q0 16 -10 35t-20 19q-2 0 -2 2l-4 2q-70 0 -70 -84zM448 270q0 80 52 146t148 66q94 0 152 -79t58 -179q0 -84 -45 -144t-131 -64 q-104 2 -169 79t-65 175zM598 280q0 -30 25 -62t49 -32q26 0 36 38q2 4 2 12q0 26 -25 54t-49 28h-6q-32 -6 -32 -38z" />
<glyph unicode="&#x26;" horiz-adv-x="1104" d="M54 374v4q0 72 20 134q56 176 160 254q10 6 10 12q0 4 -6 10q-110 140 -110 272q0 188 76 286t252 98q144 0 259 -92t115 -172q0 -44 -36 -68t-94 -24q-24 0 -48 24t-43 54t-60 54t-93 24q-134 0 -134 -174q0 -26 8 -48t25 -54t19 -36q16 -32 60 -82t52 -60 q40 -40 54 -60q14 -22 32 -44t41 -47t37 -41q8 -8 12 -8t4 4q26 148 26 160q0 14 -12 20q-4 2 -29 8t-45 12t-39 22t-19 38q0 34 30 52t64 21t90 3h36q28 0 68 -2t70 -2q96 0 119 -22t23 -88t-180 -66q-18 0 -20 -12q-4 -24 -17 -99t-24 -136t-17 -75v-2q0 -18 70 -88 q10 -10 39 -36t43 -41t34 -39t29 -45t9 -41q0 -36 -35 -70t-69 -34t-71 27t-78 66t-63 53l-6 6l-2 -2l-2 2q-152 -198 -334 -198q-136 0 -218 116t-82 272zM238 368q0 -72 43 -127t83 -55q86 0 202 174q4 6 4 16q0 8 -28 50q-10 14 -32 44t-34 44q-14 20 -82 88q-6 6 -10 6 t-12 -4q-38 -30 -64 -70q-4 -8 -19 -32t-24 -42t-18 -44t-9 -48z" />
<glyph unicode="'" horiz-adv-x="318" d="M66 1110v14q10 168 18 222q12 58 18 72q12 26 64 26q26 0 54 -18q48 -34 48 -236q0 -214 -76 -214q-54 0 -90 37t-36 97z" />
<glyph unicode="(" horiz-adv-x="578" d="M56 692q0 278 80 462t244 324q24 20 72 20q32 0 50 -37t18 -85t-18 -68q-122 -138 -181 -272t-59 -346q0 -216 59 -347t181 -271q18 -22 18 -68q0 -48 -18 -86t-50 -38q-48 0 -72 20q-164 140 -244 325t-80 467z" />
<glyph unicode=")" horiz-adv-x="578" d="M56 4q0 46 18 68q124 142 183 272t59 346q0 212 -60 345t-182 273q-18 20 -18 68q0 46 19 84t51 38q46 0 72 -20q164 -140 243 -323t79 -463q0 -284 -79 -468t-243 -324q-26 -20 -72 -20q-32 0 -51 39t-19 85z" />
<glyph unicode="*" horiz-adv-x="724" d="M54 1136v2q0 30 85 50t85 28t-26 67t-26 91q0 50 58 64h10q26 0 46 -31t37 -72t29 -53q12 74 40 135t70 61q46 0 46 -54q0 -30 -16 -89t-16 -67t16 -8t67 11t61 11q66 0 66 -38v-6q0 -38 -44 -64t-88 -38t-44 -20q0 -22 37 -94t37 -96q0 -26 -36 -26q-18 0 -59 30t-73 62 l-30 30q-10 0 -58 -79t-86 -79h-10q-26 6 -26 40q0 24 17 79t17 69q0 4 -3 7l-6 6l-5 5q-16 0 -47 -3t-45 -3q-76 0 -80 72z" />
<glyph unicode="+" horiz-adv-x="804" d="M90 710q0 66 66 80q16 4 71 9t73 11q22 6 22 24q0 4 -2 6q-16 80 -16 112q0 50 14 92q16 46 84 46q4 0 11 -3t9 -3q22 -8 34 -37t15 -55t3 -72t2 -62q4 -48 30 -48h2h20q6 0 22 1t24 1q160 0 160 -72q0 -98 -164 -98q-10 0 -24 1t-18 1q-28 0 -28 -34q0 -6 2 -42t2 -62 q0 -162 -60 -162q-46 0 -76 35t-34 79q0 6 -4 33t-4 43q0 6 1 19t1 19q0 66 -50 66q-10 0 -62 2t-60 2q-66 0 -66 68z" />
<glyph unicode="," horiz-adv-x="392" d="M6 -242q0 44 44 102q26 34 26 96q0 18 -3 54t-3 52q0 102 96 122q0 2 8 0h8q44 0 79 -24t35 -72q0 -20 -2 -30q-12 -106 -80 -221t-150 -131q-6 -2 -14 -2q-40 0 -44 42v12z" />
<glyph unicode="-" horiz-adv-x="720" d="M68 604v2q0 102 230 102h8q34 0 103 -2t117 -2q148 0 148 -102q0 -126 -342 -126q-136 0 -200 27t-64 101z" />
<glyph unicode="." horiz-adv-x="368" d="M70 170v8q4 52 32 82t74 30q26 0 40 -4q48 -12 77 -56t29 -98q0 -56 -33 -94t-97 -38q-52 0 -87 55t-35 115z" />
<glyph unicode="/" horiz-adv-x="566" d="M50 60q0 136 76 453t120 451q4 12 26 99t42 158t59 135t79 64q24 0 52 -24q28 -26 28 -100q0 -104 -42 -265t-84 -275q-58 -160 -94 -346q-6 -26 -15 -77t-15 -82t-17 -75t-24 -71t-31 -54t-43 -39t-55 -12q-20 0 -41 15t-21 45z" />
<glyph unicode="0" horiz-adv-x="916" d="M56 646q0 74 6 112q10 74 20 132t31 146t55 152t81 125t118 94t159 33h4q114 0 197 -87t119 -209t36 -258q0 -298 -84 -574q-40 -128 -128 -226t-218 -98q-54 0 -112 24q-146 60 -215 231t-69 403zM234 670q0 -48 12 -132q34 -236 152 -248q10 -2 30 -2q78 0 133 60 t82 158t38 188t11 182v58q-4 108 -44 202q-34 84 -142 84q-64 0 -123 -69t-93 -153t-42 -154q-14 -102 -14 -174z" />
<glyph unicode="1" horiz-adv-x="834" d="M44 1002q0 18 8 34q56 128 160 274t192 146q20 0 34 -6q56 -22 76 -50q70 -100 70 -626q0 -52 -1 -127t-1 -107v-2q0 -40 -2 -115t-2 -113v-46v-22q0 -26 22 -26q214 0 214 -112q-2 -24 -14 -42t-36 -29t-45 -19t-60 -11t-61 -5t-68 -3t-64 -1h-54q-30 0 -88 1t-86 1 q-42 0 -61 20t-19 80q0 52 61 74t131 22h8q32 0 32 48v26q0 452 -8 794q0 90 -18 90q-6 0 -16 -10q-24 -22 -80 -100t-78 -100q-30 -30 -70 -30q-32 0 -54 24t-22 68z" />
<glyph unicode="2" horiz-adv-x="848" d="M50 1042q0 184 92 299t250 115q178 0 267 -97t89 -279q0 -318 -312 -750q-36 -50 -36 -86q0 -12 67 -14t147 -2t147 -28t67 -88q0 -64 -75 -96t-151 -32q-298 0 -478 28q-52 8 -52 74q0 94 64 188q12 18 89 127t107 157t83 139t80 164t35 139q6 42 6 76q0 74 -34 112 t-120 38q-60 0 -99 -40t-39 -114v-128q0 -96 -64 -96h-18q-64 0 -88 46t-24 148z" />
<glyph unicode="3" horiz-adv-x="840" d="M66 1096q0 10 14 84q28 146 106 209t238 63q156 -4 251 -95t95 -243q0 -140 -54 -244t-122 -118q-10 -4 8 -14l8 -4q104 -30 152 -112t48 -230q0 -218 -96 -314t-304 -96q-144 0 -231 89t-87 225q0 88 94 88q28 0 54 -33t44 -74t57 -74t91 -33t84 18t45 53t16 64t3 75 q0 78 -43 159t-107 81q-18 0 -52 -2t-52 -2q-42 0 -68 29t-26 75q0 42 104 56q100 14 162 90t62 188q0 78 -40 151t-102 73q-120 0 -162 -222q-4 -20 -34 -31t-58 -11q-98 0 -98 82z" />
<glyph unicode="4" horiz-adv-x="782" d="M54 734q0 164 38 437t98 273q80 0 80 -170q0 -32 -3 -101t-3 -101v-240q0 -30 64 -30q22 0 154 12q6 0 21 1t22 2t16 5t13 11t6 17q6 56 6 168q0 48 -2 142t-2 140v28q0 38 22 67t58 29q12 0 22 -4t18 -11t13 -15t9 -22t7 -23t4 -26t2 -25t2 -24t1 -22q8 -122 8 -278 q0 -44 -1 -134t-1 -136q0 -108 6 -280t6 -276q0 -148 -82 -148q-34 2 -45 4t-31 13t-26 37t-6 72q0 50 1 117t1 115q0 24 -4 180v46q0 20 -7 26t-27 6h-2q-30 0 -196 -36q-70 -16 -164 -16q-96 0 -96 170z" />
<glyph unicode="5" horiz-adv-x="976" d="M64 350q0 46 88 62h14q40 0 81 -36t71 -80t75 -81t89 -39h4q94 0 164 86t70 198q0 290 -270 290q-64 0 -138 -51t-102 -51q-36 0 -58 42t-22 84q0 126 44 322t92 296q20 40 64 44q100 8 254 8h224q42 0 67 -28t27 -62q-16 -88 -190 -88q-32 0 -126 3t-122 3q-2 0 -22 -69 t-40 -150t-20 -105q0 -8 14 -8q4 0 12 2t10 2q72 8 106 8q180 0 301 -126t121 -338q0 -222 -111 -378t-305 -156h-6q-96 4 -169 32t-123 79t-78 93t-60 108q-30 64 -30 84z" />
<glyph unicode="6" horiz-adv-x="912" d="M54 484v36q14 186 62 306q46 120 120 236q110 172 290 334q48 44 84 44h10q88 -14 88 -62q0 -28 -21 -57t-56 -61t-45 -44q-12 -14 -43 -48t-47 -56q-30 -34 -80 -136q-26 -56 -68 -172q0 -2 -1 -6t-1 -6q100 18 150 18q144 0 265 -111t121 -281q0 -218 -94 -334 t-278 -116q-172 0 -314 156t-142 360zM276 480q0 -2 1 -7t1 -7q6 -48 17 -92t31 -89t53 -72t75 -27q68 0 125 70t67 138q10 70 10 82q0 88 -57 134t-141 46q-72 0 -127 -44t-55 -132z" />
<glyph unicode="7" horiz-adv-x="748" d="M46 1302q0 58 48 100q30 26 144 26h34q40 0 112 -4t98 -4h26q150 0 170 -62q6 -24 6 -42q0 -60 -16 -140t-33 -136t-48 -153t-43 -135v-4q0 -2 6 -2h18h34q66 0 92 -14t26 -70q0 -60 -37 -79t-111 -19h-24q-10 0 -15 -1t-9 -2t-7 -5t-3 -6t-2 -10t-4 -12 q-22 -90 -49 -169t-45 -147q-2 -6 -14 -47t-20 -65t-23 -57t-33 -50t-38 -17q-50 0 -83 41t-33 95q0 58 28 135t72 164t54 113q4 16 4 22q0 18 -18 18h-4q-10 0 -27 -2t-25 -2q-58 0 -104 24t-46 70q0 48 23 65t67 17q16 0 52 -2t56 -2h12q68 0 76 28q12 44 45 136t52 166 t19 142q0 20 -28 20h-106q-326 0 -326 78z" />
<glyph unicode="8" horiz-adv-x="836" d="M50 380q0 74 23 141t72 129t83 97t96 91q8 8 8 16l-25 10t-55 30t-71 53t-56 79t-25 106q0 152 100 244t238 92q118 0 207 -84t89 -184q0 -104 -62 -192t-126 -132q-2 -2 1 -7t9 -9q112 -88 182 -223t70 -301q0 -158 -99 -271t-239 -113q-172 0 -282 110t-136 282 q-2 12 -2 36zM262 372q0 -206 192 -206q68 0 110 49t42 143q0 102 -40 210t-78 142q-18 18 -30 18q-8 0 -29 -21t-29 -23q0 -4 -14 -18q-54 -50 -89 -130t-35 -164zM294 1138q0 -64 34 -96q18 -18 90 -62q10 -8 18 -8q10 0 18 10q92 104 92 198q0 106 -104 106 q-68 0 -108 -40t-40 -108z" />
<glyph unicode="9" horiz-adv-x="818" d="M48 1060q0 184 102 293t264 109q180 0 268 -95t88 -327q0 -126 -33 -318t-67 -292q-152 -458 -286 -458q-80 0 -80 74q0 26 11 64t23 65t30 65t22 46q100 244 122 368v2q0 12 -14 12q-6 0 -18 -9t-14 -9q-48 -14 -94 -14q-114 0 -191 72t-105 163t-28 189zM212 1044 q0 -126 120 -188q56 -26 104 -26q54 0 87 48t43 105t10 123q0 84 -44 126t-116 42h-6q-82 -2 -140 -69t-58 -161z" />
<glyph unicode=":" horiz-adv-x="370" d="M72 430v8q4 52 32 82t74 30q26 0 40 -4q48 -12 77 -56t29 -98q0 -56 -33 -94t-97 -38q-52 0 -87 55t-35 115zM72 940q0 54 29 99t77 57q14 4 40 4q46 0 74 -30t32 -82v-10q0 -60 -36 -115t-88 -55q-64 0 -96 38t-32 94z" />
<glyph unicode=";" horiz-adv-x="382" d="M56 -204q0 64 8 109t26 97t26 84q8 38 39 79t61 41q36 0 69 -42t33 -84q0 -22 -5 -48t-17 -59t-20 -52t-24 -56t-20 -45q-20 -48 -60 -91t-70 -43q-46 0 -46 110zM86 624v10q4 52 33 82t75 30q64 0 104 -56t40 -124q0 -50 -25 -82t-73 -32q-72 0 -113 49t-41 123z" />
<glyph unicode="&#x3c;" horiz-adv-x="622" d="M54 648q0 62 44 142t127 186t97 126q68 102 170 102q40 0 64 -18q32 -24 32 -62q0 -22 -8 -48t-27 -58t-30 -49t-37 -53l-26 -36q-30 -42 -89 -119t-77 -103q-26 -36 -26 -42q0 -18 26 -44q30 -32 94 -110t114 -122q22 -16 50 -52t28 -58q0 -26 -26 -47t-50 -21 q-36 0 -78 29t-54 43t-50 58q-34 42 -75 89t-90 102t-77 87q-26 32 -26 78z" />
<glyph unicode="=" horiz-adv-x="810" d="M70 480v2q0 40 14 51t70 21q66 10 196 10h38q378 0 378 -106q0 -36 -31 -60t-91 -33t-105 -11t-115 -2h-24q-330 0 -330 128zM70 788v2q0 42 79 65t145 23q10 0 41 -1t53 -1h60q308 0 308 -110q0 -108 -356 -108q-330 0 -330 130z" />
<glyph unicode="&#x3e;" horiz-adv-x="622" d="M54 1124q0 40 30 62q24 18 64 18q102 0 170 -102q14 -22 97 -127t128 -185t45 -142q0 -44 -28 -78q-204 -234 -240 -278q-82 -94 -130 -116q-28 -14 -54 -14q-24 0 -50 21t-26 47q0 22 28 58t50 52q50 44 114 122t94 110q26 26 26 44q0 6 -26 42q-18 26 -77 103t-89 119 q-2 2 -22 30t-28 41t-26 41t-26 47t-16 43t-8 42z" />
<glyph unicode="?" horiz-adv-x="826" d="M80 1208q0 124 103 207t237 83q148 0 253 -83t105 -219q0 -98 -42 -187t-93 -145t-93 -125t-42 -129q0 -28 13 -100t13 -102q0 -32 -43 -65t-87 -33q-78 0 -98 58q-30 92 -30 190q0 150 76 268q24 38 83 106t85 123t26 135q0 46 -39 80t-87 34q-86 0 -114 -35t-28 -153 q0 -90 -74 -90q-124 0 -124 182zM314 80q0 64 28 111t80 47t98 -41t46 -97q0 -62 -33 -108t-83 -46q-136 0 -136 134z" />
<glyph unicode="@" horiz-adv-x="1470" d="M54 684q0 216 70 389t225 284t375 111q8 0 20 -1t20 -1q366 -16 529 -206t163 -540q0 -116 -34 -221t-112 -180t-188 -75q-98 0 -155 37t-107 115q-92 -46 -172 -46q-86 0 -150 22q-88 30 -133 118t-45 182q0 160 114 256t276 96q44 0 184 -20h2q8 0 10 12t12 23t38 11 q40 0 79 -14t39 -32v-4q-10 -68 -28 -146t-44 -178t-36 -140q-4 -14 -4 -42q0 -98 90 -98q108 0 166 278q4 10 4 14q6 32 6 66q0 220 -144 373t-350 153q-236 0 -370 -162t-134 -428q10 -250 126 -391t346 -141q6 0 100 -2t100 -2h8q130 0 157 -16t27 -100q0 -42 -42 -57 t-168 -15q-474 0 -672 164t-198 554zM536 696q0 -152 168 -152q110 0 150 50q24 30 36 74t22 121t14 95q-106 8 -136 8q-98 0 -176 -57t-78 -139z" />
<glyph unicode="A" horiz-adv-x="872" d="M44 112q0 14 12 128q106 790 308 1164q22 40 64 40q82 0 190 -313t178 -646t70 -441q0 -32 -30 -51t-70 -19q-64 0 -96 69t-36 152t-20 152t-52 69h-12q-10 -2 -88 -7t-126 -20t-50 -45q0 -8 -2 -43t-3 -52t-4 -53t-7 -56t-10 -49t-16 -47t-22 -35t-30 -25t-38 -8 q-110 0 -110 136zM318 606q0 -20 30 -20h2l62 6q60 6 101 17t41 29q0 40 -56 239t-74 199q-22 0 -62 -206t-40 -260q0 -2 -2 -2t-2 -2z" />
<glyph unicode="B" horiz-adv-x="806" d="M66 72v442q0 600 22 800q0 10 2 27t3 27t3 24t5 22t8 16t13 11t18 3q188 0 284 -26t182 -122q56 -62 56 -146q0 -76 -47 -156t-99 -112h2q98 -46 173 -162t75 -248q0 -230 -124 -358t-368 -128q-72 0 -158 14q-30 4 -40 20t-10 52zM270 1094q0 -98 6 -190q74 0 143 76 t69 162q0 58 -63 85t-131 27l-12 -2q0 -4 -2 -12q-10 -76 -10 -146zM276 730q0 -60 9 -208t11 -274l2 -14l4 -2h6q12 0 37 -1t35 -1q50 0 89 35t55 91q18 54 18 160q0 130 -40 183t-152 53q-18 0 -46 -6t-28 -16z" />
<glyph unicode="C" horiz-adv-x="814" d="M44 682q0 98 2 166t11 156t26 146t47 120t73 99t106 60t145 23q126 0 226 -85t100 -233q0 -82 -44 -88q-34 -6 -68 -6q-50 0 -68 25t-22 69q-2 46 -43 72t-95 26q-58 0 -94 -35t-52 -104t-21 -131t-5 -152v-106q0 -452 174 -452q88 0 136 64q8 10 19 39t25 47t34 18 q110 0 110 -122q0 -74 -26 -122q-38 -78 -121 -132t-169 -54q-202 0 -304 186t-102 506z" />
<glyph unicode="D" horiz-adv-x="878" d="M56 326q0 8 1 25t1 23q0 292 14 698q0 18 1 81t3 97t11 80t25 74q28 48 86 48q14 0 44 -2t50 -2q72 0 138 -20q172 -42 288 -242q54 -90 78 -194t38 -264v-60q0 -120 -46 -241t-112 -185q-176 -198 -404 -256q-24 -6 -48 -6q-104 0 -132 52q-36 74 -36 294zM278 1012 q0 -14 1 -42t1 -42q0 -62 2 -174t2 -210q0 -38 1 -111t1 -111v-18v-18q0 -76 20 -76h6q8 4 31 14t35 18q48 30 126 92q158 132 158 422q0 208 -100 340q-88 112 -254 124h-6q-24 0 -24 -24v-184z" />
<glyph unicode="E" horiz-adv-x="618" d="M62 330v146q0 152 7 442t7 446q0 82 112 82h30q52 0 139 -4t137 -4q54 0 78 -52q8 -16 8 -68v-4q0 -28 -26 -49t-58 -21h-216q-14 0 -14 -26q0 -60 -2 -200t-2 -196q0 -26 9 -33t39 -11q18 -2 55 -3t60 -3t49 -8t38 -19t12 -35q0 -128 -66 -128q-18 0 -88 -6t-94 -6 q-10 0 -10 -22q0 -40 1 -151t1 -169v-2v-2q0 -26 64 -26q150 0 200 -17t50 -65q0 -122 -156 -122h-98q-8 0 -22 -1t-20 -1q-142 0 -170 28q-52 56 -52 144v18q0 22 -1 73t-1 75z" />
<glyph unicode="F" horiz-adv-x="632" d="M58 1376q0 44 41 57t117 13h72q210 0 278 -10q40 -6 40 -92q0 -104 -188 -104h-108q-32 0 -32 -22v-8q2 -36 7 -131t7 -165q0 -34 34 -34h10q240 0 240 -104q0 -108 -162 -108q-22 0 -62 4h-14q-30 0 -30 -30q0 -50 4 -149t4 -157v-60q0 -64 -3 -103t-14 -84t-37 -66 t-66 -21q-34 0 -58 17t-37 41t-20 68t-8 82t-1 100v102q0 72 -1 220t-1 218q0 298 -12 526z" />
<glyph unicode="G" horiz-adv-x="876" d="M52 656q0 160 14 258q10 80 74 266q46 130 162 214q92 68 230 68q78 0 122 -12q106 -24 136 -100q34 -86 38 -216v-6q0 -68 -32 -94t-100 -28q-96 0 -96 56q0 26 6 86q0 4 3 28t3 34q0 44 -26 60t-86 16q-56 0 -95 -33t-55 -69t-34 -96q-52 -172 -52 -442q0 -12 1 -36 t1 -38q6 -154 71 -253t201 -99q42 0 62 4t34 22t14 54v14q-6 60 -12 138q-2 30 -32 30q-22 0 -66 -4t-62 -4q-36 0 -51 23t-15 87q0 36 46 53t144 23t104 6h12q34 0 56 -25t28 -59q30 -144 30 -378q0 -114 -105 -169t-253 -55q-124 0 -209 53t-130 151t-63 211t-18 261z" />
<glyph unicode="H" horiz-adv-x="846" d="M70 208v86q0 40 2 116t2 108v112q0 22 1 67t1 67v96q0 80 -3 222t-3 200q0 162 96 162q122 0 122 -90v-294q0 -46 -1 -140t-1 -140v-8q2 -42 20 -42q52 0 135 12t111 14q16 2 22 3t11 6t5 17v14q-4 44 -4 150v36q0 70 -5 187t-5 189q0 38 32 62t64 24q66 0 87 -35 t21 -107q0 -20 -2 -68t-2 -76v-132q0 -106 6 -358t6 -380q0 -14 1 -47t1 -51q0 -78 -28 -129t-84 -51q-32 0 -52 25t-28 72t-10 81t-2 86q0 40 2 109t2 93v22q0 62 -32 62h-6q-52 -4 -54 -4l-122 -12q-4 0 -16 1t-18 1q-44 0 -56 -20t-12 -62q0 -56 4 -171t4 -173 q0 -126 -124 -126q-88 0 -88 214z" />
<glyph unicode="I" horiz-adv-x="332" d="M62 492q0 370 16 802q0 66 26 108t80 42q78 -6 78 -106v-82q0 -74 4 -219t4 -211q0 -38 -2 -111t-2 -111q0 -42 1 -115t1 -111q0 -30 1 -104t1 -104q0 -168 -82 -168q-36 0 -60 14t-37 33t-19 61t-7 73t-1 95v30v70q0 20 -1 58t-1 56z" />
<glyph unicode="J" horiz-adv-x="726" d="M48 344v2v12q0 46 2 69t10 53t29 43t57 13q28 0 46 -36t18 -70v-12q0 -38 5 -76t18 -78t39 -65t62 -25q114 0 140 368q8 78 8 180q0 40 -1 120t-1 118v84q0 24 -3 88t-3 98q0 206 98 206q50 0 75 -81t25 -187q0 -26 -1 -67t-1 -53q0 -80 -2 -232t-2 -240q0 -8 -1 -26 t-1 -26q-10 -256 -36 -342q-36 -112 -122 -170q-76 -46 -192 -46q-134 0 -200 111t-66 267z" />
<glyph unicode="K" horiz-adv-x="946" d="M74 296q0 34 1 112t1 122q0 62 4 195t4 199q0 70 6 215t6 199q0 36 32 71t68 35q72 0 87 -22t21 -114q6 -94 6 -282v-64v-8q0 -10 10 -14h2q6 0 12 7t13 17t7 12q16 24 47 69t45 67q2 2 46 72t76 116t85 92t95 46q26 0 55 -21t29 -47q0 -20 -11 -40t-34 -47t-27 -31 q-26 -38 -98 -135t-110 -151q-16 -24 -53 -79t-55 -85q-12 -18 -12 -28t12 -28q30 -42 124 -140q52 -50 99 -111t105 -146t86 -123q58 -82 58 -108q0 -36 -52 -79t-112 -43q-36 0 -58 18q-32 28 -58 69t-53 94t-47 83q-130 196 -160 232q-8 12 -38 60h-2q-16 0 -16 -16v-122 q0 -134 10 -248q6 -54 6 -96q0 -62 -22 -88t-92 -26q-82 0 -109 37t-33 129q-6 84 -6 174z" />
<glyph unicode="L" horiz-adv-x="642" d="M62 236q0 26 1 54t3 61t2 53v38q0 26 -1 80t-1 80v28q2 74 2 188t1 176t8 146t19 160q10 48 44 85t78 37q60 0 76 -23t16 -79v-26v-82v-48q0 -74 -4 -218t-4 -214q0 -72 3 -229t3 -231q2 -32 56 -32q22 0 64 2t60 2q60 0 91 -22t31 -88q0 -70 -48 -100t-100 -34 q-16 -2 -25 -3t-13 -2t-6 -2t-5 -1h-11q-12 0 -81 4t-109 4q-134 0 -148 168q-2 24 -2 68z" />
<glyph unicode="M" horiz-adv-x="1224" d="M58 146q0 132 12 386t12 402q0 50 3 159t3 153q0 74 30 143t88 69q48 0 87 -54t53 -114q188 -626 222 -780q0 -26 20 -26q22 0 50 92q32 88 112 302t146 410q56 176 136 176q40 0 66 -21t37 -64t14 -83t3 -102v-58q0 -158 6 -504t6 -482v-26q0 -150 -110 -150l-4 -2h-6 h-2q-2 2 -4 2q-64 10 -84 68t-20 158v110q0 88 5 286t5 288q0 40 -12 40q-10 0 -39 -82t-59 -180t-36 -110q-20 -50 -58 -156t-48 -134q-6 -18 -16 -49t-16 -47t-18 -34t-28 -26t-40 -8q-2 0 -5 -1t-5 -1q-42 0 -69 67t-46 184t-23 131q-76 300 -124 432q0 4 -6 13t-10 9h-2 q-10 -2 -10 -16v-4v-50q0 -54 4 -207t4 -229q0 -52 -1 -155t-1 -147v-20q0 -42 -29 -67t-79 -25q-62 0 -88 34t-26 100z" />
<glyph unicode="N" horiz-adv-x="860" d="M64 198q0 132 3 398t3 406q0 86 3 149t14 135t37 111t66 39q118 0 190 -232q24 -76 59 -207t47 -173q10 -34 30 -112t36 -135t34 -101v40q0 140 6 381t6 385q0 158 140 158q40 0 51 -23t11 -75q0 -142 -9 -414t-9 -424q0 -38 2 -98t2 -94q0 -24 2 -73t2 -75q0 -8 1 -32 t1 -36q0 -96 -94 -96q-68 2 -114 52t-64 96q-72 202 -180 646q-10 30 -30 72q-4 2 -8 2q-16 0 -16 -14v-10q0 -120 3 -356t3 -384q0 -52 -28 -77t-60 -25q-140 0 -140 196z" />
<glyph unicode="O" d="M52 650q0 120 10 226t37 215t70 185t116 125t169 49q388 0 388 -820q0 -152 -40 -298t-134 -255t-222 -109q-122 0 -204 54t-122 157t-54 212t-14 259zM256 682q0 -114 10 -194q12 -144 47 -220t127 -78q54 0 92 67t56 180t25 219t7 224q0 88 -17 176t-61 157t-106 69h-2 q-178 0 -178 -600z" />
<glyph unicode="P" horiz-adv-x="822" d="M62 1238q0 138 24 162q44 44 142 44q14 0 69 2t85 2q172 0 292 -119t120 -283q0 -6 1 -19t1 -21q0 -156 -96 -263t-238 -125q-80 -10 -112 -10h-6q-20 0 -22 -24v-12v-16v-30v-422q0 -42 -45 -79t-95 -37q-44 0 -73 37t-29 113v368q0 56 -2 169t-2 167q0 48 -7 189 t-7 207zM308 1198q0 -58 6 -186t6 -200q2 -22 16 -22h12q128 0 182 86q46 68 46 136q0 90 -55 154t-137 66h-52q-20 0 -24 -28v-6z" />
<glyph unicode="Q" horiz-adv-x="946" d="M58 606v10q0 12 2 39t2 37q0 246 78 416q56 130 132 222q98 120 276 120q66 0 127 -39t97 -95q80 -122 96 -240q34 -208 34 -384v-10q0 -134 -32 -272t-80 -234q-6 -10 -6 -30q0 -38 10 -52t48 -14q4 0 12 1t12 1h18q32 0 48 -12q14 -12 14 -20q0 -72 -38 -116t-104 -44 q-24 0 -48 6q-46 10 -98 74q-2 2 -7 8t-9 10q-14 14 -22 14t-18 -8q-46 -38 -108 -44h-20q-34 0 -84 18q-94 32 -152 80q-38 32 -82 96q-4 4 -4 8q2 0 2 2q-14 14 -30 46q-66 168 -66 406zM240 592q0 -102 26 -216q8 -26 18 -26q12 0 20 6q70 52 146 52q112 0 202 -84 q16 -16 24 -16t14 30q38 162 38 360v26q-4 270 -70 426q-36 96 -118 96q-72 0 -144 -72q-68 -78 -96 -196q-46 -182 -56 -308q-4 -52 -4 -78zM420 180q0 -12 16 -20q30 -12 94 -24h6q8 0 14 12q2 2 2 6q0 8 -6 14q-26 36 -74 36h-2q-2 -2 -4 -2h-8h-2q-12 0 -20 -4 q-16 -8 -16 -18z" />
<glyph unicode="R" horiz-adv-x="924" d="M56 154q0 20 1 56t1 50v16q2 116 2 346q0 116 -1 343t-1 339v8q0 102 32 122q40 22 166 22h68q132 0 192 -12q98 -20 182 -77t120 -135q34 -72 34 -166q0 -76 -28 -126q-46 -80 -107 -129t-145 -91q-6 -2 -14 -5t-11 -5t-6 -6t-3 -12v-2q20 -28 95 -134t111 -161t85 -144 t73 -161v-14q0 -54 -38 -76q-20 -12 -50 -12q-44 0 -70 26q-68 74 -126 155t-127 188t-105 159q-8 12 -30 48t-41 64t-35 42q-16 0 -16 -212q0 -60 2 -180t2 -190q0 -46 -23 -66t-95 -20q-34 0 -58 10q-36 16 -36 142zM264 1068q0 -224 8 -224q40 0 118 26t118 52q4 2 21 14 t24 17t22 17t22 21t16 22t13 27t4 28q0 56 -48 100t-104 62q-62 20 -176 20h-22q-16 0 -16 -182z" />
<glyph unicode="S" horiz-adv-x="778" d="M50 364q0 66 33 117t91 51q38 0 57 -29t21 -59q10 -152 32 -196q30 -58 104 -58q64 0 96 53t32 121q0 88 -34 161t-85 120t-111 98t-111 95t-85 112t-34 148q0 146 85 249t217 103q182 0 252 -87t70 -243q0 -62 -26 -90t-62 -28q-44 0 -75 28t-31 92q0 26 -3 44t-13 43 t-36 39t-68 14q-44 0 -77 -47t-33 -97q0 -64 50 -131t121 -130t142 -135t121 -174t50 -220q0 -142 -66 -236q-56 -76 -117 -102t-179 -26q-134 0 -231 117t-97 283z" />
<glyph unicode="T" horiz-adv-x="678" d="M28 1272q0 26 4 58q4 34 14 53t32 27t36 9t54 3q184 4 240 4q10 0 35 1t39 1q110 0 148 -29t38 -109q0 -104 -142 -104h-62q-24 0 -28 -20q-6 -48 -6 -98q0 -56 -1 -167t-1 -169q8 -164 8 -504v-58q0 -14 -1 -44t-1 -46q0 -94 -112 -94q-50 0 -79 33t-29 85q0 104 2 126 q20 194 20 676q0 276 -18 276h-12h-42q-38 0 -74 6q-26 4 -44 30t-18 54z" />
<glyph unicode="U" horiz-adv-x="934" d="M50 738q0 58 2 177t2 161q0 234 32 320q16 48 94 48q16 0 28 -13t17 -39t7 -45t4 -52t2 -37q8 -80 8 -233t4 -276t19 -248t62 -196t125 -71h4q36 0 65 23t47 66t31 92t21 116t13 119t10 122t9 106l8 112t12 145t18 131t33 108t51 38q94 0 94 -164v-84v-230 q0 -376 -62 -578q-60 -194 -142 -275t-218 -81q-400 0 -400 738z" />
<glyph unicode="V" horiz-adv-x="828" d="M24 1328q0 118 84 124h10q92 0 124 -228q12 -86 34 -258t42 -292t54 -270q6 -18 14 -18q12 0 58 232t96 481t72 279q48 68 102 68q36 0 70 -42t34 -88q0 -10 -4 -22q-14 -68 -60 -307t-87 -415t-77 -268q-6 -14 -21 -65t-31 -95t-38 -92t-52 -76t-64 -28h-18 q-48 0 -64 26q-50 78 -89 186t-70 281t-45 254t-40 308t-28 239q-6 54 -6 86z" />
<glyph unicode="W" horiz-adv-x="1224" d="M26 1240q0 150 100 150q8 0 15 -2t13 -8t10 -12t9 -17t9 -21t8 -26t7 -29t9 -35t10 -38q30 -114 54 -273t38 -268t22 -125q4 -8 8 -8h2q0 -2 2 -2q8 0 14 24q54 328 126 630q8 36 15 56t26 40t47 20h4q72 0 106 -76q30 -64 53 -129t43 -148t30 -129t31 -152t27 -136 q8 -30 18 -30h4q6 0 13 16t13 43t11 61t10 73t9 77t7 76t5 65t4 47t2 22q4 56 4 170v2q0 16 -1 53t-1 57q0 86 22 135t88 49q80 0 103 -53t23 -149v-14q-6 -96 -24 -274t-49 -409t-77 -396t-96 -165h-8q-20 0 -40 12t-37 40t-30 51t-28 67t-22 64t-20 66t-15 52 q-20 66 -44 154q0 4 -10 53t-23 108t-27 120t-26 102t-18 41q-4 0 -6 -39t-5 -88t-7 -63q-130 -660 -196 -702q-32 -20 -58 -20q-20 0 -36 15t-28 42t-20 50t-16 54t-12 41q-82 256 -127 484t-65 516q0 6 -1 18t-1 20z" />
<glyph unicode="X" horiz-adv-x="862" d="M34 1338q0 80 56 98h4h2q66 0 136 -124q24 -44 89 -178t101 -190q12 -18 14 -22l12 18q16 24 66 166t116 243t154 101q66 0 66 -74q0 -50 -26 -137t-44 -123q-32 -62 -99 -206t-111 -220v-2l-12 -12q8 -10 8 -14q10 -26 29 -73t25 -61t59 -112t87 -185t34 -149 q0 -28 -10 -52q-4 -4 -7 -10l-4 -8t-4 -5t-8 -4t-12 -2t-19 -1q-66 0 -115 66t-92 174t-53 124q-2 4 -18 41t-30 69t-16 36q-30 -48 -83 -197t-77 -193q-64 -116 -126 -116h-4q-64 2 -64 84q0 100 58 228t116 232t58 148q0 76 -214 458q-42 72 -42 184z" />
<glyph unicode="Y" horiz-adv-x="750" d="M16 1350q0 94 102 94q74 0 132 -129t102 -322t48 -203q12 30 53 211t91 315t106 134h2q26 0 54 -20q16 -14 16 -78v-12q0 -58 -22 -190q-12 -72 -58 -214t-86 -248l-38 -106q4 -54 4 -126q0 -20 -1 -81t-1 -113q0 -170 -26 -237t-122 -67q-50 0 -78 48t-28 116 q0 66 6 194t6 204q0 32 -8 50q-40 100 -118 331t-90 263q-46 134 -46 186z" />
<glyph unicode="Z" horiz-adv-x="788" d="M42 1286q0 34 8 56t25 33t24 14t25 7q172 48 390 48q182 0 224 -52q18 -24 18 -54v-4q-2 -42 -22 -114t-34 -100q-52 -98 -95 -198t-98 -242t-93 -234q-54 -130 -56 -140q-2 -6 -2 -16q0 -14 18 -18q20 -4 39 -10t26 -7t20 -2t41 -1h98q48 0 72 -4t48 -29t32 -75v-10 q0 -14 -2 -22q-12 -68 -45 -91t-93 -23q-16 0 -55 2t-63 2t-91 -2t-105 -2q-240 0 -240 84q0 160 84 336q26 56 94 216t100 228q14 32 57 111t73 140t30 77t-16 16q-8 0 -12 -2q-6 -6 -108 -6q-78 0 -170 12q-146 20 -146 76z" />
<glyph unicode="[" horiz-adv-x="678" d="M68 1030q0 222 4 312q2 42 10 66t30 34t41 12t64 2t75 4q72 6 134 6q92 0 157 -24t65 -72q0 -66 -52 -87t-150 -21h-88q-28 0 -38 -2h-2q-10 -16 -10 -30v-2q4 -116 6 -491t10 -573q2 -26 16 -32t48 -6q16 0 56 1t60 1q148 0 148 -78q0 -118 -162 -118q-112 0 -220 18 q-116 18 -150 50q-32 30 -32 86q0 28 1 83t1 81q0 144 -11 404t-11 376z" />
<glyph unicode="\" horiz-adv-x="608" d="M52 1276v22q0 98 64 98q42 0 88 -67t90 -186t76 -220t69 -236t47 -167q8 -24 28 -87t31 -98t23 -87t14 -94v-22q0 -118 -76 -118q-44 0 -90 32t-66 96q-16 54 -101 313t-135 457t-62 364z" />
<glyph unicode="]" horiz-adv-x="644" d="M48 1374q0 20 4 32q18 70 174 70q36 0 97 -5t75 -5q80 -4 114 -36q86 -84 86 -670q0 -184 -20 -644q-10 -192 -404 -192q-56 0 -87 28t-31 66q0 46 43 81t123 35q58 4 92 10q12 16 12 24l-2 6v6q26 472 26 780v156q0 48 -12 108q-6 36 -53 50t-99 14t-95 20t-43 66z" />
<glyph unicode="^" horiz-adv-x="586" d="M66 1260q0 34 25 69t41 48t56 43q68 52 116 52q20 0 36 -3t26 -5t24 -12t20 -16t26 -24t30 -28q40 -36 57 -62t17 -64t-16 -59t-36 -21q-34 0 -122 64q-12 8 -25 22t-22 22t-15 8l-52 -34q-16 -10 -31 -25t-32 -23t-53 -14h-12q-24 0 -41 17t-17 45z" />
<glyph unicode="_" horiz-adv-x="966" d="M68 -118q0 72 46 90t160 18q58 0 180 6t176 6q290 0 290 -108q0 -42 -44 -81t-100 -47q-44 -6 -124 -6q-54 0 -310 10h-66q-82 0 -145 26t-63 86z" />
<glyph unicode="`" horiz-adv-x="462" d="M56 1500q0 26 14 42t36 16q28 0 72 -20q64 -32 143 -127t91 -163v-4q2 -4 2 -6q0 -26 -28 -26q-76 0 -203 104t-127 184z" />
<glyph unicode="a" horiz-adv-x="784" d="M22 66q0 32 6 68q84 514 298 1182q26 80 54 122q8 12 33 26t51 14q32 0 57 -20t40 -60t23 -67t16 -69q30 -160 92 -532t100 -560q16 -76 16 -102q0 -32 -36 -60t-66 -28q-102 0 -124 130q-4 28 -16 85t-18 95q-2 14 -13 24t-23 10h-2q-40 -4 -68 -4q-16 0 -47 1t-45 1 q-32 0 -46 -2q-34 -6 -38 -54q-4 -60 -10 -102t-21 -88t-45 -70t-72 -24q-54 0 -75 21t-21 63zM302 542q0 -20 16 -20q102 0 186 14q20 4 20 26v6q-38 334 -80 540q-4 16 -12 16h-2q-6 0 -8 -2t-2 -7v-7q-96 -430 -118 -560v-6z" />
<glyph unicode="b" horiz-adv-x="904" d="M68 1318q0 44 12 84q14 46 238 46q92 0 171 -14t151 -46t114 -94t44 -148q0 -70 -28 -122t-61 -75t-61 -41t-28 -26q0 -2 2 -2q14 0 51 -25t83 -67t82 -115t38 -155v-18q0 -246 -164 -379t-416 -133h-26h-18q-36 0 -60 2t-53 10t-45 28t-16 50q-6 174 -6 354q0 60 2 174 t2 172q0 60 -2 182t-2 184q0 12 1 34t1 32l-2 24q0 14 -2 42t-2 42zM260 1102q0 -38 1 -87t1 -51q0 -26 42 -26q82 0 182 62t100 136q0 46 -23 76t-66 43t-83 18t-94 5h-48q-12 0 -12 -176zM264 344q0 -96 32 -100q40 -6 72 -6q132 0 213 74t81 210q0 124 -54 181t-172 57 q-86 0 -150 -38q-20 -10 -20 -32q0 -14 1 -42t1 -42q0 -34 -1 -101t-1 -101q0 -8 -1 -28t-1 -32z" />
<glyph unicode="c" horiz-adv-x="796" d="M44 614q0 110 5 196t20 188t45 176t76 138t120 98t168 34q116 0 200 -88t88 -210v-6q0 -68 -32 -94t-100 -28q-96 0 -96 58q0 66 -25 97t-53 31q-196 0 -196 -520q0 -468 148 -468q44 0 86 26t42 66q0 136 116 136q52 0 78 -44t26 -108q0 -142 -105 -227t-243 -85 q-368 0 -368 634z" />
<glyph unicode="d" horiz-adv-x="792" d="M62 480q0 124 9 352t11 282q2 110 18 258q8 68 120 76h50q84 0 160 -14q254 -52 312 -406q10 -56 10 -230q0 -216 -54 -396t-182 -304t-314 -124q-8 0 -28 1t-32 1q-62 0 -66 94q0 38 -6 109t-6 109v20q-2 58 -2 172zM312 948q4 -88 7 -211t5 -207v-14q2 -24 2 -72v-122 q0 -52 2 -80q0 -18 16 -18q78 0 157 217t79 389q0 66 -2 107t-9 97t-22 90t-40 67t-66 50t-97 19h-2q-30 0 -30 -46v-20v-12v-144v-60v-30z" />
<glyph unicode="e" horiz-adv-x="634" d="M64 92q0 76 4 243t4 247v380q0 158 8 308v58q0 62 14 90t60 28q58 0 104 -1t106 -1h30q44 0 72 -2t61 -10t50 -28t17 -50q0 -36 -8 -57t-31 -30t-41 -11t-58 -2h-8h-90h-2q-20 0 -30 -2t-17 -10t-7 -26v-20q0 -44 -1 -132t-1 -130l-2 -40q-2 0 -2 -24q2 -36 72 -36l30 -2 q0 -2 16 -2q38 0 57 -4t37 -28t18 -72v-16q-4 -68 -114 -68q-14 0 -59 1t-57 1q-14 0 -14 -226q0 -32 3 -81t3 -53q0 -64 38 -64h2q46 0 87 1t87 1q98 0 98 -108q0 -2 -1 -10t-1 -10q-4 -56 -29 -75t-77 -19q-18 0 -70 3t-86 3t-89 1t-75 1h-2q-64 0 -85 19t-21 65z" />
<glyph unicode="f" horiz-adv-x="614" d="M66 1208q0 140 14 166q22 50 63 63t119 13h14q74 0 112 -3t90 -3q50 0 79 -34t29 -80q0 -44 -34 -71t-62 -27h-50h-24q-46 0 -92 -2q-16 0 -29 -23t-13 -57l6 -354q2 -10 3 -30t2 -27t9 -15t22 -8h6h32q12 0 76 -4q106 -8 106 -108q0 -36 -34 -67t-92 -31h-20h-6 q-94 0 -96 -38v-20v-32q0 -4 -1 -47t-2 -104t-1 -109v-60q0 -50 -16 -73t-68 -23q-92 0 -115 32t-23 114v40v52q0 44 5 160t5 168q0 48 -1 105t-3 128t-2 111q0 24 -3 81t-4 112t-1 105z" />
<glyph unicode="g" horiz-adv-x="934" d="M50 678q0 150 28 283t86 243t160 175t236 65q298 0 298 -300q0 -12 1 -39t1 -41q0 -82 -44 -88q-32 -6 -68 -6q-54 0 -72 40t-22 108q-8 128 -82 128q-52 0 -118 -62t-96 -128q-48 -104 -68 -191t-20 -213q0 -176 66 -286q48 -82 72 -112q2 -2 11 -14t13 -16t12 -14 t13 -14t15 -10t17 -9t18 -5t21 -2q140 0 140 328q0 18 -22 18h-2q-40 0 -104 3t-96 3t-58 20t-26 48q0 60 34 90q40 38 206 38q34 0 89 -2t69 -2q50 0 82 -37t36 -93q12 -96 12 -164q0 -238 -86 -343t-304 -105q-114 0 -203 66t-141 171t-78 226t-26 243z" />
<glyph unicode="h" horiz-adv-x="894" d="M62 244v656v84v94q0 84 4 137t16 112t41 88t75 29q90 0 90 -326v-6q0 -62 -4 -199t-4 -207v-4q0 -32 18 -32q2 0 4 1t4 1q20 4 84 4q10 0 44 -1t46 -1q40 0 72 8q2 0 4 1t4 1q22 6 29 12t7 24v286v62v124q0 128 18 190t76 62q66 0 99 -54t33 -132v-162q0 -172 13 -478 t13 -464q0 -72 -28 -120t-76 -48q-156 0 -156 386v38q0 52 -18 52q-26 0 -101 -6t-109 -6q-74 0 -74 -50v-140v-74v-64q0 -66 -17 -98t-71 -32q-136 0 -136 252z" />
<glyph unicode="i" horiz-adv-x="342" d="M54 276q0 76 8 247t8 249q0 352 86 352q36 0 62 -19t39 -47t20 -77t9 -89t2 -104q0 -116 -2 -323t-2 -303q0 -46 -2 -68t-11 -49t-31 -38t-60 -11h-14q-10 0 -20 6q-92 48 -92 274zM64 1346q0 70 25 108t65 38q30 0 58 -22q80 -62 80 -176q0 -56 -28 -86t-68 -30 q-52 0 -92 45t-40 123z" />
<glyph unicode="j" horiz-adv-x="774" d="M48 426q0 134 112 134q86 0 98 -174q6 -84 35 -125t89 -41q112 0 112 210v106q0 182 -34 774v26q0 56 23 83t87 27q78 0 100 -122q22 -118 37 -373t15 -445q0 -266 -73 -408t-267 -142q-122 0 -206 78q-128 126 -128 392z" />
<glyph unicode="k" horiz-adv-x="922" d="M66 270q0 30 1 103t1 119q0 130 3 378t3 374q0 200 104 200q42 0 69 -18t37 -58t13 -72t3 -88v-16v-120q-2 -120 -2 -132q0 -88 10 -88t122 148q18 28 54 78t54 78q30 44 89 123t77 105q30 38 90 38q40 0 69 -19t29 -53q0 -46 -48 -112q-20 -28 -94 -129t-112 -157 q-18 -28 -62 -85t-62 -85q-14 -22 -14 -26q0 -2 16 -30q26 -38 78 -116t94 -134q18 -24 52 -69t50 -67q110 -142 110 -202q0 -36 -46 -79t-124 -43q-62 0 -128 93t-129 221t-85 156q-44 56 -58 82q-18 0 -18 -18q0 -218 14 -416q0 -6 1 -16t1 -14q0 -134 -120 -134 q-54 0 -91 47t-47 137q-4 46 -4 116z" />
<glyph unicode="l" horiz-adv-x="692" d="M62 294v182q0 72 4 213t4 213q0 24 -1 77t-1 83q0 80 5 137t19 118t46 94t80 33q86 0 86 -408q0 -46 -1 -112t-1 -78q0 -84 -5 -272t-5 -278q0 -12 8 -25t20 -13q22 0 36 1t32 1q168 0 220 -32q32 -20 44 -38t12 -52q0 -70 -44 -109t-122 -39h-46q-36 0 -80 -5t-78 -5 q-106 0 -164 38t-64 144q-4 88 -4 132z" />
<glyph unicode="m" horiz-adv-x="1164" d="M62 220q0 156 6 442t6 440q0 326 86 356q6 2 16 2q30 0 56 -18q18 -10 35 -28t30 -35t28 -46t23 -46t21 -52t18 -48t17 -49l14 -42q8 -26 19 -72t15 -60q2 -6 23 -92t41 -160t26 -74q12 0 139 308t155 384q8 22 41 60t55 52q18 12 42 12q110 0 124 -280q6 -144 6 -230 v-92q0 -100 7 -309t7 -313v-68q0 -56 -5 -89t-27 -59t-62 -26q-110 0 -132 76q-38 134 -38 368v2q0 60 2 179t2 175q0 16 -4 64q0 10 -10 10q-12 0 -132 -379t-156 -387h-8q-16 0 -28 8q-48 38 -88 145t-59 203t-43 242t-30 180q-6 30 -20 30h-2q-10 -2 -10 -24v-26 q0 -38 3 -83t3 -75t2 -98t2 -138v-238q0 -126 -24 -184t-98 -58q-16 0 -24 2q-70 12 -70 238z" />
<glyph unicode="n" horiz-adv-x="972" d="M60 194v76q0 34 1 90t1 74q0 20 1 59t1 59v160q0 326 18 518q6 60 13 89t31 58t68 33h12q64 0 150 -165t179 -404t119 -291q48 -96 54 -96t6 24q0 8 -1 23t-1 17q4 148 4 210q0 96 -4 271t-4 261q0 116 23 154t87 38q104 0 104 -194q0 -32 1 -87t1 -67q0 -140 -3 -406 t-3 -404q0 -94 -27 -178t-85 -98l-15 -5t-17 -5t-16 -2q-40 0 -75 26t-62 75t-44 88t-37 96t-26 71q-16 38 -47 123t-53 133q-6 12 -46 110t-68 140q-2 2 -5 9t-7 12t-8 5q-18 0 -18 -120q0 -128 8 -292t8 -266q0 -50 -1 -74t-7 -60t-17 -52t-33 -29t-56 -13q-18 0 -28 2 q-48 6 -62 57t-14 147z" />
<glyph unicode="o" horiz-adv-x="794" d="M52 704q0 106 17 223t55 239t111 200t169 78q102 0 175 -81t108 -217t49 -267t14 -275q0 -172 -36 -307t-122 -224t-216 -89q-324 0 -324 720zM254 702q0 -220 29 -374t87 -154q70 0 116 114t46 324v36q0 72 -1 123t-5 127t-12 128t-22 103t-37 77t-53 26 q-64 0 -106 -161t-42 -369z" />
<glyph unicode="p" horiz-adv-x="730" d="M64 1342q0 2 1 6t1 6q16 70 90 82q84 14 108 14q444 0 444 -388q0 -182 -120 -304t-300 -158q-22 -4 -30 -12t-8 -28v-12q10 -220 10 -406q0 -96 -17 -119t-65 -23q-32 0 -51 10t-35 57t-16 133q0 56 -3 160t-3 166q0 60 2 180t2 180q0 106 -5 266t-5 190zM246 828 q2 -28 18 -28q8 0 20 6q80 34 146 98t66 160q0 58 -43 116t-97 72q-36 8 -54 8q-44 0 -44 -38q0 -92 -6 -186t-6 -182v-26z" />
<glyph unicode="q" horiz-adv-x="1110" d="M50 662q0 118 16 208q16 86 36 157t62 158t97 145t145 99t202 41q84 0 176 -46q194 -102 254 -450q22 -144 24 -192q0 -12 1 -36t1 -36q0 -376 -180 -556q-2 -4 -9 -11t-11 -13t-4 -14q0 -12 10 -22q18 -22 62 -65t64 -69t20 -54q0 -36 -29 -58t-69 -22q-54 0 -86 38 q-52 58 -104 110q-24 24 -56 24q-2 0 -7 -1t-7 -1q-18 -4 -60 -4q-106 0 -165 12t-119 54q-264 192 -264 604zM284 674q0 -114 36 -222q20 -56 34 -89t41 -76t66 -67t91 -30q-14 28 -50 54q-30 22 -30 68q0 34 14 46t44 12q34 0 64 -26q86 -80 88 -82q8 -6 18 -18t16 -17 t14 -5q8 20 30 48q112 136 112 444q0 596 -276 596q-94 0 -176 -120t-106 -232q-24 -108 -30 -256v-28z" />
<glyph unicode="r" horiz-adv-x="754" d="M66 112q0 94 6 270t6 266q0 76 -2 114q-8 252 -8 404v88q0 124 42 161t168 37q110 0 188 -24q46 -16 70 -30q114 -64 140 -284q10 -84 10 -166q0 -100 -15 -180t-61 -140t-118 -60q-26 0 -26 -18q0 -8 12 -24q196 -266 254 -390q14 -28 14 -58q0 -42 -23 -73t-55 -31 q-30 0 -57 13t-46 28t-41 48t-31 48t-30 55t-23 44q-28 54 -64 141t-60 137q-8 16 -22 16q-16 0 -16 -64q0 -16 1 -42t1 -32q0 -18 7 -125t7 -151q0 -62 -32 -83t-94 -21q-60 0 -81 32t-21 94zM296 1032q0 -48 4 -141t4 -117q4 -32 20 -32h2q102 12 139 61t37 159 q0 70 -4 113t-19 94t-50 76t-89 25q-34 0 -38 -70q0 -18 -2 -52t-3 -62t-1 -54z" />
<glyph unicode="s" horiz-adv-x="754" d="M50 328q0 100 24 137t90 37q96 0 96 -126q0 -12 1 -40t1 -60q0 -120 108 -120q52 0 79 35t33 74t6 99q0 114 -33 180t-85 93t-107 49t-110 72t-83 136q-14 42 -14 104q0 82 17 158t53 145t102 110t154 41q180 0 249 -78t69 -266q0 -74 -100 -74q-46 0 -69 33t-28 72 t-31 72t-74 33q-52 0 -85 -47t-43 -98t-10 -99q0 -88 82 -130q92 -46 146 -83t113 -97t86 -143t27 -193q0 -164 -88 -279t-258 -115q-148 0 -233 103t-85 265z" />
<glyph unicode="t" horiz-adv-x="700" d="M16 1334q0 42 27 72t73 32q96 2 197 10t205 8q170 0 170 -102v-4q0 -38 -2 -55t-15 -39t-42 -31t-79 -11q-22 0 -31 -1t-33 -3t-31 -8t-7 -30v-4q0 -102 3 -297t3 -289q0 -36 -1 -103t-1 -99q0 -18 1 -65t1 -73q0 -50 -2 -74q-2 -22 -2 -66t-3 -57t-12 -35t-31 -28 t-58 -6q-54 0 -71 51t-17 137v74v80q0 128 -7 368t-7 366v130q0 38 -20 38q0 -2 -2 -2q-30 -2 -64 -2q-6 0 -24 1t-32 1q-86 2 -86 116z" />
<glyph unicode="u" horiz-adv-x="856" d="M48 992v114q0 332 116 332q54 0 54 -354v-74v-48q4 -44 5 -162t7 -216t21 -204t52 -167t95 -61q62 8 101 152t50 279t11 245v68q0 36 -4 131t-4 141q0 138 31 211t123 73q62 0 79 -33t17 -111v-98q0 -82 3 -235t3 -257q0 -340 -78 -530q-44 -106 -124 -157t-166 -51 q-64 0 -116 23t-90 59t-68 96t-50 115t-33 139t-20 144t-10 154t-4 145t-1 137z" />
<glyph unicode="v" horiz-adv-x="800" d="M34 1208q0 240 116 240q2 0 8 -1t10 -1q30 -4 56 -133t58 -345t60 -332q50 -214 70 -214h2q32 8 144 622q4 24 13 73t15 79t16 74t21 70t26 53t36 39t45 12q22 0 40 -18t18 -40q0 -136 -46 -400q-178 -1022 -306 -1022q-28 0 -54 11t-48 37t-40 51t-36 68t-30 73t-27 82 t-22 78t-20 78t-17 66q-34 126 -71 336t-37 364z" />
<glyph unicode="w" horiz-adv-x="1214" d="M26 1290q0 120 68 154q14 8 32 8q40 0 74 -73t49 -140t23 -129q8 -60 34 -202t34 -196q2 -6 8 -62t6 -62q0 -28 14 -28q4 0 6 8q14 68 40 219t51 252t63 211q8 24 37 46t49 22q74 0 98 -148q10 -52 34 -264t50 -286q0 -2 2 -6q2 -8 4 -10q8 0 38 108q6 22 44 178t54 226 q78 334 198 334q60 0 60 -138q0 -92 -44 -240q-16 -52 -49 -145t-55 -168t-34 -147q-4 -28 -21 -102t-21 -116q-4 -28 -18 -77t-18 -69q-12 -62 -59 -151t-87 -89h-8q-32 0 -56 15t-37 32t-24 54t-15 58t-9 66t-7 57q-18 124 -28 174q-2 8 -8 69t-15 109t-25 48 q-8 0 -18 -49t-17 -110t-7 -63q-10 -52 -18 -146q-10 -112 -40 -219t-86 -107h-8q-12 0 -18 2q-30 10 -54 28t-42 50t-29 55t-21 72t-14 70t-12 78t-10 71q-14 98 -47 283t-45 269q-4 30 -17 97t-21 121t-8 98z" />
<glyph unicode="x" horiz-adv-x="908" d="M18 1328q0 112 56 112q34 0 76 -33t68 -71q18 -28 80 -145t88 -151q18 -24 33 -49t22 -36t11 -11q8 0 40 74q28 58 65 171t59 165q2 6 8 20t9 20l9 18t11 18t12 12t15 9t18 3q26 0 60 -24q18 -14 18 -52q0 -68 -43 -210t-73 -198q0 -2 -28 -63t-42 -99t-14 -56 q0 -16 12 -52q34 -74 137 -228t143 -250q26 -60 26 -118q0 -104 -78 -104q-56 0 -155 159t-191 353q-22 44 -30 44t-18 -25t-27 -77t-31 -86q-2 -4 -15 -52t-30 -98t-41 -105t-57 -90t-69 -35q-38 0 -68 29t-30 59q0 68 67 237t125 283q4 10 44 124q4 16 4 22q0 10 -10 34 q-22 48 -94 160t-122 213t-50 179z" />
<glyph unicode="y" horiz-adv-x="814" d="M10 1326q0 48 25 81t69 33q38 0 88 -74q40 -60 91 -196t92 -232t69 -96q14 0 65 136t69 200q32 106 86 224q24 52 56 52h2q30 0 55 -28t25 -80q0 -68 -14 -138t-23 -101t-46 -121t-45 -110q-20 -50 -60 -116t-69 -113t-29 -65q0 -50 1 -124t1 -148q0 -14 2 -65t2 -81 q0 -182 -82 -182q-88 0 -118 65t-30 175q0 58 10 168t10 154q-8 52 -34 116q-28 64 -86 183t-92 205q-10 24 -30 74t-31 77t-20 63t-9 64z" />
<glyph unicode="z" horiz-adv-x="692" d="M30 1308q0 52 36 95t92 43q40 0 110 1t100 1q82 0 122 -4q50 -2 80 -8t56 -28t26 -62q0 -142 -41 -288t-94 -253t-115 -256t-92 -279q0 -2 -1 -5t-1 -5q0 -24 14 -24q32 0 100 1t102 1q92 0 122 -28t30 -108q0 -104 -128 -104h-2q-44 0 -84 5t-76 5q-58 0 -156 -8h-18 q-78 0 -121 44t-43 112q0 56 26 114q168 384 292 724q40 112 62 166q6 16 6 24q0 20 -18 20q-22 2 -131 14t-187 12q-32 0 -50 22t-18 56z" />
<glyph unicode="{" horiz-adv-x="604" d="M40 706q0 22 28 39t61 28t61 39t28 70v4q-16 288 -16 310q0 124 76 211t208 87q92 0 92 -32q0 -42 -54 -76q-58 -36 -78 -72t-20 -120q0 -50 3 -146t3 -142q0 -44 -23 -116t-51 -82q28 -10 51 -81t23 -115q0 -46 -3 -143t-3 -147q0 -84 20 -120t78 -72q54 -32 54 -76 q0 -32 -92 -32q-132 0 -208 87t-76 211q0 22 16 310v4q0 42 -28 70t-61 39t-61 27t-28 36z" />
<glyph unicode="|" horiz-adv-x="348" d="M70 214q0 104 10 349t10 351q0 54 -2 189t-2 193q0 72 -2 106v4q0 30 21 55t47 25q6 0 18 -4q50 -24 72 -62t34 -106q26 -158 26 -524q0 -78 -1 -210t-1 -176q0 -22 1 -71t1 -73q0 -260 -90 -260q-92 0 -117 50t-25 164z" />
<glyph unicode="}" horiz-adv-x="624" d="M40 -46q0 44 54 76q58 36 78 72t20 120q0 50 -3 147t-3 143q0 44 24 115t52 81q-28 10 -52 82t-24 116q0 46 3 142t3 146q0 84 -20 120t-78 72q-54 34 -54 76q0 32 94 32q132 0 207 -87t75 -211q0 -58 -14 -310v-4q0 -42 27 -70t61 -39t61 -28t27 -39q0 -20 -27 -36 t-61 -27t-61 -39t-27 -70v-4q14 -252 14 -310q0 -124 -75 -211t-207 -87q-94 0 -94 32z" />
<glyph unicode="~" horiz-adv-x="702" d="M66 1278q0 74 47 111t125 37q34 0 88 -27t84 -27q28 0 56 18q42 24 80 24q46 0 78 -27t32 -75q0 -44 -22 -67t-66 -43q-44 -22 -156 -22q-42 0 -100 27t-102 27q-18 0 -43 -20t-43 -20q-22 0 -40 28t-18 56z" />
<glyph unicode="&#xa1;" horiz-adv-x="428" d="M70 262q0 24 1 90t1 98v16v36q0 266 10 330q14 94 48 141t116 47q102 0 102 -204q0 -26 -14 -306q0 -10 -2 -72t-5 -102t-7 -107t-12 -111t-20 -90t-29 -69t-39 -23q-34 0 -65 17t-43 47q-42 100 -42 262zM80 1276v2q0 78 48 126t108 48q50 0 85 -40t35 -118 q0 -66 -39 -119t-91 -53q-64 0 -105 52t-41 102z" />
<glyph unicode="&#xa2;" horiz-adv-x="674" d="M28 670v26q0 154 73 286t177 164q4 2 12 4t13 4t10 5t7 6t2 9v48q0 22 -2 67t-2 57q0 48 19 69t79 21q44 0 58 -50q8 -32 8 -80q0 -18 -2 -65t-2 -63q0 -8 5 -14t10 -8t17 -5t16 -5q48 -14 76 -48t28 -76q0 -14 -10 -40q-20 -38 -52 -38q-12 0 -71 7t-87 7 q-84 0 -136 -83t-52 -163q0 -216 224 -216q22 0 45 1t47 4t34 3q66 0 72 -56q2 -24 2 -30q0 -56 -37 -90t-129 -48q-6 0 -6 -14v-6q0 -24 1 -80t1 -78q0 -102 -90 -102q-58 0 -75 35t-17 115l6 126q-78 0 -171 111t-101 283z" />
<glyph unicode="&#xa3;" horiz-adv-x="802" d="M18 688q0 38 28 55t72 22t46 5v8v-4v10v100q0 92 3 151t12 135t29 123t53 91t86 65t125 21q110 0 188 -49t78 -133q0 -42 -34 -88q-16 -24 -42 -24q-22 0 -72 37t-104 37q-52 0 -78 -47t-26 -123q0 -52 2 -150t2 -148v-6v-2h26h10h52q172 0 172 -82q0 -110 -114 -110 q-22 0 -69 -3t-59 -3h-14q2 -56 2 -224v-100v-14q38 0 129 1t117 1q80 0 114 -19t34 -89q0 -124 -196 -124h-176q-96 0 -138 2h-64q-190 0 -190 110q0 68 34 91t114 25v10q0 6 -6 324q-10 4 -40 5t-50 5t-38 31t-18 77z" />
<glyph unicode="&#xa4;" d="M38 1204q0 28 23 44t55 16q48 0 70 -34l118 -180q6 2 27 15t27 15l24 8t34 8t38 2q76 0 144 -28q46 58 72 114q30 58 84 58q32 0 54 -20t22 -54v-12q-4 -30 -29 -75t-49 -75l-22 -30q116 -102 116 -284q0 -206 -146 -302q68 -138 110 -242q4 -12 4 -22q0 -28 -25 -50 t-57 -22q-70 0 -112 94l-70 162q-66 -22 -104 -22q-54 0 -128 20q-54 -118 -84 -198q-20 -56 -92 -56q-34 0 -58 17t-24 45q0 14 10 38q26 54 49 110t33 86l12 30q-112 74 -112 258q0 238 102 340q-56 76 -108 194q-8 16 -8 32zM256 684q0 -226 184 -226q104 0 141 69 t37 183q0 84 -46 151t-138 67q-80 0 -129 -64t-49 -180z" />
<glyph unicode="&#xa5;" horiz-adv-x="786" d="M46 1350q0 94 100 94q74 0 132 -129t102 -322t48 -203q12 30 53 211t91 315t106 134h2q26 0 54 -20q18 -16 18 -78v-12q0 -46 -24 -190q-22 -130 -150 -486q194 -16 194 -108q0 -72 -188 -72h-30q2 -10 2 -30t2 -30q214 -12 214 -108q0 -66 -148 -66q-40 0 -62 2 q0 -156 -33 -225t-129 -69q-50 0 -78 48t-28 116q0 46 4 134h-42q-84 0 -127 17t-43 65v2q0 40 75 63t145 25v60q-108 0 -164 18t-56 74v2q0 32 55 54t121 30q-30 82 -87 254t-83 244q-46 134 -46 186z" />
<glyph unicode="&#xa6;" horiz-adv-x="346" d="M64 1144v4v46q0 68 3 104t14 75t36 55t67 16q64 0 91 -149t27 -287v-100q0 -68 -86 -68q-94 0 -122 53t-28 157v60q0 6 -1 18t-1 16zM80 112q0 24 4 78t4 80v54q0 24 -3 84t-3 92q0 200 100 200q2 0 8 1t10 1q90 0 90 -288q0 -48 7 -137t7 -131q-8 -86 -31 -127t-85 -41 t-85 35t-23 99z" />
<glyph unicode="&#xa7;" horiz-adv-x="656" d="M54 286v2q0 38 30 69t64 31q40 0 56 -46q22 -64 24 -70q28 -68 124 -82h8q96 0 96 144q0 48 -23 90t-61 60q-24 10 -66 22t-74 25t-56 33q-62 54 -62 136q0 32 8 58q24 92 94 188q10 12 10 24q0 8 -20 22q-82 50 -120 150q-20 46 -20 92q0 116 84 173t190 57 q98 0 189 -78t91 -146q0 -66 -98 -66q-46 0 -64 38q-2 6 -6 19t-6 19q-22 58 -100 82q-18 6 -34 6q-36 0 -57 -25t-21 -65q0 -24 10 -38q48 -72 104 -100q120 -54 184 -124t64 -196q0 -34 -6 -66t-18 -76t-14 -58q-2 -6 -2 -14q0 -14 12 -32q44 -68 52 -176v-34 q0 -138 -59 -224t-175 -90h-44q-122 0 -205 73t-83 193zM272 750q0 -64 68 -88q8 -2 26 -6t26 -8l16 -4q26 0 36 98v4q0 102 -66 152q-12 10 -22 10q-8 0 -20 -14q-46 -60 -60 -120q-4 -20 -4 -24z" />
<glyph unicode="&#xa8;" horiz-adv-x="522" d="M60 1506q0 38 31 64t65 26h10q70 -18 70 -66q0 -32 -30 -58t-76 -28h-4q-14 0 -42 12q-24 10 -24 50zM316 1512q0 32 27 55t55 23q42 0 63 -20t21 -50q0 -34 -24 -62t-62 -28q-24 0 -52 28t-28 54z" />
<glyph unicode="&#xa9;" horiz-adv-x="1128" d="M58 622q0 142 32 282t94 265t168 202t240 77q128 0 228 -70t158 -186t87 -253t29 -285q0 -162 -22 -279t-78 -211t-158 -141t-254 -47q-176 0 -298 93t-174 235t-52 318zM214 664q0 -98 19 -178t61 -151t122 -111t192 -40q96 0 164 54t100 144t44 176t12 180 q0 234 -85 387t-267 153q-122 0 -208 -103t-120 -236t-34 -275zM322 698q0 174 80 300t220 126q40 0 73 -32t33 -66q0 -38 -42 -52q-98 -34 -144 -83t-46 -165q0 -4 1 -15t1 -17q0 -94 49 -130t151 -36q28 0 44 -25t16 -49q0 -34 -39 -68t-93 -34q-126 0 -215 103t-89 243z " />
<glyph unicode="&#xaa;" horiz-adv-x="636" d="M56 1044q0 142 56 236t178 94q30 0 52 -8q4 0 12 17t23 33t35 16h4q2 0 4 1t4 1q42 0 42 -160v-16q2 -54 7 -156t7 -126q2 -16 15 -28t22 -16t32 -11t27 -9q10 -2 18 -25t8 -41q0 -20 -13 -37t-35 -17h-10q-58 22 -86 41t-44 49q-24 -56 -162 -56q-118 0 -178 128 q-18 38 -18 90zM186 1090q0 -84 62 -94q32 -4 50 -4q30 0 39 10t9 32q0 6 -1 21t-1 25q0 12 -1 19t-1 21q0 16 1 30t1 28q0 34 -2 50q-2 12 -28 12q-48 0 -88 -46t-40 -104z" />
<glyph unicode="&#xab;" horiz-adv-x="742" d="M54 638q0 76 141 256t213 180q48 -4 48 -52q0 -38 -22 -64q-48 -60 -114 -171t-66 -143q34 -82 66 -120q32 -40 102 -118t96 -110q16 -20 16 -56q0 -34 -15 -60t-41 -26h-4q-32 0 -72 26q-56 38 -84 72q-10 10 -42 45t-48 53t-38 47t-38 55q-86 148 -90 158q-8 16 -8 28z M318 630q0 12 8 28q16 26 87 148t113 186q16 26 48 26q34 0 59 -18t25 -48q0 -26 -28 -68q-22 -34 -66 -103t-66 -103q-10 -18 -10 -42q0 -12 26 -40t74 -71t66 -61q60 -60 60 -120q0 -22 -14 -37t-34 -15q-28 0 -60 24q-44 28 -85 66t-60 60t-67 80t-60 74q-16 20 -16 34z " />
<glyph unicode="&#xac;" horiz-adv-x="826" d="M66 680q0 36 14 72q26 74 180 74l272 -2q44 4 62 4q50 0 84 -15t51 -35t27 -63t12 -75t4 -96t4 -102q0 -10 1 -28t1 -28q0 -4 -1 -13t-1 -13q-2 -42 -29 -66t-65 -24q-72 0 -76 88q-6 144 -6 184q-2 28 -28 30q-290 14 -360 14q-146 0 -146 94z" />
<glyph unicode="&#xad;" horiz-adv-x="916" d="M68 604v2q0 24 33 52t61 30q252 20 340 20q110 0 238 -14q42 -6 86 -39t44 -73t-57 -64t-115 -28q-10 0 -120 -7t-180 -7q-330 0 -330 128z" />
<glyph unicode="&#xae;" horiz-adv-x="1126" d="M58 622q0 142 32 282t94 265t168 202t240 77q128 0 228 -70t158 -186t87 -253t29 -285q0 -162 -22 -279t-78 -211t-158 -141t-254 -47q-176 0 -298 93t-174 235t-52 318zM214 664q0 -98 19 -178t61 -151t122 -111t192 -40q96 0 164 54t100 144t44 176t12 180 q0 234 -85 387t-267 153q-122 0 -208 -103t-120 -236t-34 -275zM408 430q0 50 3 146t3 144q0 44 -3 137t-3 135v46q0 36 14 78q10 28 98 28q90 0 138 -28q78 -44 78 -240q0 -198 -102 -198q-14 0 -14 -8t6 -14q20 -28 84 -134q10 -18 25 -35t25 -39q10 -16 10 -34 q0 -22 -13 -38t-29 -16q-22 0 -42 30q-18 30 -66 116t-80 130q-4 8 -10 8q-10 0 -10 -34q0 -10 1 -22t1 -16q0 -10 3 -35t4 -48t1 -41q0 -36 -19 -61t-49 -25q-54 0 -54 68zM530 874q0 -104 14 -104h2l60 6q40 8 40 90q0 48 -14 108q-24 72 -50 72h-8q-2 0 -10 1t-10 1 q-18 0 -22 -38q-2 -30 -2 -90v-46z" />
<glyph unicode="&#xaf;" horiz-adv-x="522" d="M62 1476q0 46 23 58t75 12h22h22q12 0 38 1t40 1q198 0 198 -92q0 -38 -96 -38q-8 0 -22 1t-20 1q-16 0 -47 -1t-45 -1q-72 0 -136 8q-18 4 -28 8t-17 14t-7 28z" />
<glyph unicode="&#xb0;" horiz-adv-x="460" d="M66 1240q0 20 2 30q34 180 206 180q68 0 98 -42t36 -126q2 -14 2 -42q0 -110 -38 -163t-144 -53h-6q-72 0 -114 69t-42 147zM164 1226q0 -44 44 -50q6 -2 16 -2q60 0 60 80q0 2 -1 8t-1 10q-2 20 -13 38t-27 18q-28 0 -53 -34t-25 -68z" />
<glyph unicode="&#xb1;" horiz-adv-x="724" d="M56 348q0 34 19 53t45 25q86 20 142 20l206 2h20h44q158 0 158 -70q0 -58 -43 -77t-119 -19q-10 0 -24 1t-18 1q-10 0 -182 -2t-182 -2q-66 0 -66 68zM56 894q0 34 19 54t45 26q16 4 70 9t72 11q22 6 22 22q0 4 -2 6q-16 80 -16 112q0 46 14 88q16 46 82 46q4 0 12 -3 t10 -3q48 -18 48 -152v-20q0 -34 2 -48q4 -48 32 -48h2h20h44q158 0 158 -70q0 -58 -43 -76t-119 -18h-42q-16 0 -21 -6t-5 -26q0 -6 2 -42t2 -62q0 -158 -60 -158q-46 0 -75 34t-33 78q0 8 -4 34t-4 40q0 6 1 19t1 19q0 64 -50 64q-8 0 -58 2t-60 2q-66 0 -66 66z" />
<glyph unicode="&#xb2;" horiz-adv-x="478" d="M56 1236q0 92 48 150t128 58q92 0 149 -48t57 -134q0 -28 -2 -54t-9 -53t-12 -46t-18 -47t-19 -41t-23 -43t-23 -39t-26 -41t-24 -38v-2q0 -4 41 -3t81 -12t40 -49q0 -34 -39 -61t-73 -27h-68q-154 0 -154 52q0 56 44 122q162 240 162 360q0 50 -15 69t-63 19 q-22 0 -35 -11t-18 -39t-6 -50t-1 -68q0 -20 -16 -34t-36 -14h-10q-60 0 -60 124z" />
<glyph unicode="&#xb3;" horiz-adv-x="474" d="M56 1264q0 174 164 174h12q82 -2 134 -45t52 -119q0 -40 -28 -94t-56 -78q-6 -6 -6 -8q0 -8 8 -10q100 -50 100 -170q0 -118 -38 -166t-154 -48q-80 0 -127 52t-47 132q0 60 40 60q36 0 52 -19t17 -42t17 -42t52 -19q34 0 51 18t20 37t3 51q0 38 -22 69t-54 31 q-10 0 -31 -3t-29 -3q-32 0 -32 52q0 8 5 15t16 13t19 9t21 8t17 7q24 10 44 47t20 71q0 36 -17 63t-49 27q-28 0 -41 -17t-15 -37t-20 -37t-52 -17q-46 0 -46 38z" />
<glyph unicode="&#xb4;" horiz-adv-x="460" d="M66 1238v10q12 68 91 163t143 127q44 20 72 20q22 0 37 -16t15 -42q0 -80 -127 -184t-203 -104q-28 0 -28 26z" />
<glyph unicode="&#xb5;" horiz-adv-x="950" d="M126 774q0 610 142 610q56 0 56 -102q0 -22 -3 -62t-3 -60q0 -522 12 -820q2 -70 63 -118t131 -48q54 0 91 36t41 108q8 142 8 404q0 38 -1 122t-1 120q0 196 6 294l2 38q2 40 27 68t67 28q38 0 67 -64t29 -142q0 -64 -3 -156t-3 -142q0 -314 8 -698v-18q0 -90 -29 -131 t-63 -41q-42 0 -68 11t-32 24t-12 24t-16 11t-12 -8q-116 -56 -160 -56q-46 0 -93 26t-65 82q-16 -2 -16 -90q0 -22 1 -57t1 -41q0 -50 9 -100t9 -116q0 -68 -84 -68q-62 0 -80 42t-18 124v70q0 2 -2 18v16q0 168 -3 424t-3 438z" />
<glyph unicode="&#xb6;" horiz-adv-x="1132" d="M98 1030q0 152 123 264t295 134q76 12 240 12h36h6q176 0 192 -60q36 -164 36 -440v-260q0 -36 -1 -108t-1 -108v-228q0 -34 3 -86t3 -70q0 -44 -12 -63t-52 -19q-16 0 -26 2t-17 9t-11 13t-6 20t-3 25t-2 34t-3 39q-14 154 -14 454v92v282q0 356 -30 356h-24 q-18 0 -18 -106q0 -20 1 -52t1 -38q0 -112 7 -344t7 -346v-236q0 -28 3 -68t3 -54q0 -46 -23 -66t-91 -20q-48 0 -79 25t-46 72t-21 95t-6 114q0 44 4 121t4 105q0 104 -34 104h-22q-174 0 -298 114t-124 286z" />
<glyph unicode="&#xb7;" horiz-adv-x="354" d="M66 804v10q4 52 33 82t75 30q92 0 118 -62q18 -40 18 -76q0 -60 -40 -101t-90 -41q-46 0 -80 44t-34 114z" />
<glyph unicode="&#xb8;" horiz-adv-x="512" d="M86 -306q0 18 15 46t32 50t40 51t29 37q14 20 38 46t65 55t71 29q52 0 52 -48q0 -32 -22 -80q-14 -32 -72 -94l-58 -62q-60 -72 -122 -72q-68 0 -68 42z" />
<glyph unicode="&#xb9;" horiz-adv-x="470" d="M72 1208q0 6 4 18q0 2 2 8t2 8q40 88 154 194q20 20 50 20q34 0 44 -32q16 -48 16 -312v-16v-118q0 -20 -1 -49t-1 -47v-34q0 -14 10 -14q4 0 10 1t8 1q34 0 51 -14t17 -62q-2 -10 -6 -17t-11 -13t-15 -10t-20 -6t-21 -4t-25 -2t-25 -1t-26 -1h-25h-26h-86q-42 0 -42 50 q0 70 56 70q8 0 22 -2t20 -2h2q16 0 16 24v14q0 64 -2 173t-2 173q0 46 -8 46q-2 0 -8 -6q-12 -10 -28 -40t-28 -42q-4 -4 -12 -4q-22 0 -44 13t-22 35z" />
<glyph unicode="&#xba;" horiz-adv-x="518" d="M54 894q0 46 23 60t73 14h46h58q62 0 110 -10q38 -8 69 -30t35 -56v-4q0 -44 -120 -44q-86 0 -242 24q-20 6 -28 9t-16 12t-8 25zM96 1238q0 20 2 30q34 180 204 180q138 0 138 -210q0 -110 -39 -163t-147 -53q-158 0 -158 216zM194 1224q0 -52 60 -52t60 82q0 28 -12 50 t-32 22q-28 0 -52 -34t-24 -68z" />
<glyph unicode="&#xbb;" horiz-adv-x="746" d="M54 344q0 60 60 120q16 16 64 60t74 72t26 40q0 24 -10 42q-22 34 -66 103t-66 103q-28 42 -28 68q0 30 25 48t59 18q32 0 48 -26q42 -64 113 -186t87 -148q8 -16 8 -28q0 -14 -16 -34q-12 -16 -60 -74t-67 -80t-60 -60t-85 -66q-32 -24 -60 -24q-46 0 -46 52zM232 240 q0 36 16 56q26 32 96 110t102 118q14 16 31 46t27 52l8 22q0 32 -66 143t-114 171q-22 26 -22 64q0 48 48 52q72 0 214 -180t142 -256q0 -8 -10 -28q-4 -10 -90 -158q-16 -26 -38 -55t-38 -47t-48 -53t-42 -45q-28 -34 -84 -72q-40 -26 -70 -26h-4q-26 0 -42 26t-16 60z" />
<glyph unicode="&#xbc;" horiz-adv-x="1068" d="M72 1208q0 6 4 18q0 2 2 8t2 8q40 88 154 194q20 20 50 20q34 0 44 -32q16 -48 16 -312v-16v-118q0 -20 -1 -49t-1 -47v-34q0 -14 10 -14q4 0 10 1t8 1q34 0 51 -14t17 -62q-2 -10 -6 -17t-11 -13t-15 -10t-20 -6t-21 -4t-25 -2t-25 -1t-26 -1h-25h-26h-86q-42 0 -42 50 q0 70 56 70q8 0 22 -2t20 -2h2q16 0 16 24v14q0 64 -2 173t-2 173q0 46 -8 46q-2 0 -8 -6q-12 -10 -28 -40t-28 -42q-4 -4 -12 -4q-22 0 -44 13t-22 35zM304 86q0 58 39 178t45 142q2 6 24 80q14 44 68 238q52 206 78 282q88 266 118 350q24 72 62 72q22 0 38 -26t16 -64 q0 -20 -6 -44q-28 -106 -110 -380t-118 -410q-10 -34 -50 -167t-56 -211q-28 -138 -78 -138q-10 0 -18 6q-52 28 -52 92zM652 364q0 16 4 44q6 26 10 82t8 76q0 6 3 31t6 42t7 37t12 31t18 11q12 0 20 -1t13 -5t8 -6t5 -11t3 -12t2 -16t1 -19q4 -34 4 -116v-120 q0 -14 32 -14q28 0 58 6q2 0 12 1t13 2t8 4t5 11q4 56 4 84q0 24 -1 71t-1 69v14q0 18 11 33t29 15h6q60 0 62 -34q2 -8 4 -30t2 -30q8 -120 8 -274q0 -28 -1 -80t-1 -80q0 -18 2 -28q0 -12 3 -51t3 -61q0 -24 -24 -41t-44 -17h-2q-64 4 -64 46v148q0 74 -2 114v6 q-160 -18 -198 -18q-48 0 -48 86z" />
<glyph unicode="&#xbd;" horiz-adv-x="1068" d="M72 1208q0 6 4 18q0 2 2 8t2 8q40 88 154 194q20 20 50 20q34 0 44 -32q16 -48 16 -312v-16v-118q0 -20 -1 -49t-1 -47v-34q0 -14 10 -14q4 0 10 1t8 1q34 0 51 -14t17 -62q-2 -10 -6 -17t-11 -13t-15 -10t-20 -6t-21 -4t-25 -2t-25 -1t-26 -1h-25h-26h-86q-42 0 -42 50 q0 70 56 70q8 0 22 -2t20 -2h2q16 0 16 24v14q0 64 -2 173t-2 173q0 46 -8 46q-2 0 -8 -6q-12 -10 -28 -40t-28 -42q-4 -4 -12 -4q-22 0 -44 13t-22 35zM304 86q0 58 39 178t45 142q2 6 24 80q14 44 68 238q52 206 78 282q88 266 118 350q24 72 62 72q22 0 38 -26t16 -64 q0 -20 -6 -44q-28 -106 -110 -380t-118 -410q-10 -34 -50 -167t-56 -211q-28 -138 -78 -138q-10 0 -18 6q-52 28 -52 92zM644 510q0 92 48 150t128 58q92 0 149 -48t57 -134q0 -28 -2 -54t-9 -53t-12 -46t-18 -47t-19 -41t-23 -43t-23 -39t-26 -41t-24 -38v-2q0 -4 41 -3 t81 -12t40 -49q0 -34 -39 -61t-73 -27h-68q-154 0 -154 52q0 56 44 122q162 240 162 360q0 50 -15 69t-63 19q-22 0 -35 -11t-18 -39t-6 -50t-1 -68q0 -20 -16 -34t-36 -14h-10q-60 0 -60 124z" />
<glyph unicode="&#xbe;" horiz-adv-x="1068" d="M56 1264q0 174 164 174h12q82 -2 134 -45t52 -119q0 -40 -28 -94t-56 -78q-6 -6 -6 -8q0 -8 8 -10q100 -50 100 -170q0 -118 -38 -166t-154 -48q-80 0 -127 52t-47 132q0 60 40 60q36 0 52 -19t17 -42t17 -42t52 -19q34 0 51 18t20 37t3 51q0 38 -22 69t-54 31 q-10 0 -31 -3t-29 -3q-32 0 -32 52q0 8 5 15t16 13t19 9t21 8t17 7q24 10 44 47t20 71q0 36 -17 63t-49 27q-28 0 -41 -17t-15 -37t-20 -37t-52 -17q-46 0 -46 38zM304 86q0 58 39 178t45 142q2 6 24 80q14 44 68 238q52 206 78 282q88 266 118 350q24 72 62 72q22 0 38 -26 t16 -64q0 -20 -6 -44q-28 -106 -110 -380t-118 -410q-10 -34 -50 -167t-56 -211q-28 -138 -78 -138q-10 0 -18 6q-52 28 -52 92zM652 364q0 16 4 44q6 26 10 82t8 76q0 6 3 31t6 42t7 37t12 31t18 11q12 0 20 -1t13 -5t8 -6t5 -11t3 -12t2 -16t1 -19q4 -34 4 -116v-120 q0 -14 32 -14q28 0 58 6q2 0 12 1t13 2t8 4t5 11q4 56 4 84q0 24 -1 71t-1 69v14q0 18 11 33t29 15h6q60 0 62 -34q2 -8 4 -30t2 -30q8 -120 8 -274q0 -28 -1 -80t-1 -80q0 -18 2 -28q0 -12 3 -51t3 -61q0 -24 -24 -41t-44 -17h-2q-64 4 -64 46v148q0 74 -2 114v6 q-160 -18 -198 -18q-48 0 -48 86z" />
<glyph unicode="&#xbf;" horiz-adv-x="798" d="M50 268q0 54 36 134q14 32 154 207t140 245q0 28 -18 113t-18 115q0 72 78 72q80 0 100 -58q28 -86 28 -190q0 -150 -76 -268q-24 -36 -88 -112t-94 -138t-30 -142q0 -86 120 -86q104 0 135 34t31 154q0 90 74 90q62 0 86 -46t24 -136q0 -124 -97 -206t-229 -82 q-148 0 -252 82t-104 218zM306 1342q0 64 33 110t83 46q136 0 136 -136q0 -64 -28 -111t-80 -47q-42 0 -102 42q-42 30 -42 96z" />
<glyph unicode="&#xc0;" horiz-adv-x="872" d="M44 112q0 14 12 128q106 790 308 1164q22 40 64 40q82 0 190 -313t178 -646t70 -441q0 -32 -30 -51t-70 -19q-64 0 -96 69t-36 152t-20 152t-52 69h-12q-10 -2 -88 -7t-126 -20t-50 -45q0 -8 -2 -43t-3 -52t-4 -53t-7 -56t-10 -49t-16 -47t-22 -35t-30 -25t-38 -8 q-110 0 -110 136zM98 1778q0 26 14 42t36 16q28 0 72 -20q64 -32 143 -127t91 -163v-4q2 -4 2 -6q0 -26 -28 -26q-76 0 -203 104t-127 184zM318 606q0 -20 30 -20h2l62 6q60 6 101 17t41 29q0 40 -56 239t-74 199q-22 0 -62 -206t-40 -260q0 -2 -2 -2t-2 -2z" />
<glyph unicode="&#xc1;" horiz-adv-x="872" d="M44 112q0 14 12 128q106 790 308 1164q22 40 64 40q82 0 190 -313t178 -646t70 -441q0 -32 -30 -51t-70 -19q-64 0 -96 69t-36 152t-20 152t-52 69h-12q-10 -2 -88 -7t-126 -20t-50 -45q0 -8 -2 -43t-3 -52t-4 -53t-7 -56t-10 -49t-16 -47t-22 -35t-30 -25t-38 -8 q-110 0 -110 136zM318 606q0 -20 30 -20h2l62 6q60 6 101 17t41 29q0 40 -56 239t-74 199q-22 0 -62 -206t-40 -260q0 -2 -2 -2t-2 -2zM402 1516v10q12 68 91 163t143 127q44 20 72 20q22 0 37 -16t15 -42q0 -80 -127 -184t-203 -104q-28 0 -28 26z" />
<glyph unicode="&#xc2;" horiz-adv-x="872" d="M44 112q0 14 12 128q106 790 308 1164q22 40 64 40q82 0 190 -313t178 -646t70 -441q0 -32 -30 -51t-70 -19q-64 0 -96 69t-36 152t-20 152t-52 69h-12q-10 -2 -88 -7t-126 -20t-50 -45q0 -8 -2 -43t-3 -52t-4 -53t-7 -56t-10 -49t-16 -47t-22 -35t-30 -25t-38 -8 q-110 0 -110 136zM194 1554q0 34 25 69t41 48t56 43q68 52 116 52q20 0 36 -3t26 -5t24 -12t20 -16t26 -24t30 -28q40 -36 57 -62t17 -64t-16 -59t-36 -21q-34 0 -122 64q-12 8 -25 22t-22 22t-15 8l-52 -34q-16 -10 -31 -25t-32 -23t-53 -14h-12q-24 0 -41 17t-17 45z M318 606q0 -20 30 -20h2l62 6q60 6 101 17t41 29q0 40 -56 239t-74 199q-22 0 -62 -206t-40 -260q0 -2 -2 -2t-2 -2z" />
<glyph unicode="&#xc3;" horiz-adv-x="872" d="M44 112q0 14 12 128q106 790 308 1164q22 40 64 40q82 0 190 -313t178 -646t70 -441q0 -32 -30 -51t-70 -19q-64 0 -96 69t-36 152t-20 152t-52 69h-12q-10 -2 -88 -7t-126 -20t-50 -45q0 -8 -2 -43t-3 -52t-4 -53t-7 -56t-10 -49t-16 -47t-22 -35t-30 -25t-38 -8 q-110 0 -110 136zM152 1588q0 74 47 111t125 37q34 0 88 -27t84 -27q28 0 56 18q42 24 80 24q46 0 78 -27t32 -75q0 -44 -22 -67t-66 -43q-44 -22 -156 -22q-42 0 -100 27t-102 27q-18 0 -43 -20t-43 -20q-22 0 -40 28t-18 56zM318 606q0 -20 30 -20h2l62 6q60 6 101 17 t41 29q0 40 -56 239t-74 199q-22 0 -62 -206t-40 -260q0 -2 -2 -2t-2 -2z" />
<glyph unicode="&#xc4;" horiz-adv-x="872" d="M44 112q0 14 12 128q106 790 308 1164q22 40 64 40q82 0 190 -313t178 -646t70 -441q0 -32 -30 -51t-70 -19q-64 0 -96 69t-36 152t-20 152t-52 69h-12q-10 -2 -88 -7t-126 -20t-50 -45q0 -8 -2 -43t-3 -52t-4 -53t-7 -56t-10 -49t-16 -47t-22 -35t-30 -25t-38 -8 q-110 0 -110 136zM210 1568q0 38 31 64t65 26h10q70 -18 70 -66q0 -32 -30 -58t-76 -28h-4q-14 0 -42 12q-24 10 -24 50zM318 606q0 -20 30 -20h2l62 6q60 6 101 17t41 29q0 40 -56 239t-74 199q-22 0 -62 -206t-40 -260q0 -2 -2 -2t-2 -2zM466 1574q0 32 27 55t55 23 q42 0 63 -20t21 -50q0 -34 -24 -62t-62 -28q-24 0 -52 28t-28 54z" />
<glyph unicode="&#xc5;" horiz-adv-x="872" d="M44 112q0 14 12 128q98 726 274 1094q-38 30 -60 84t-22 106q0 20 2 30q34 180 206 180q68 0 99 -43t37 -125q2 -14 2 -42q0 -142 -62 -186q110 -202 222 -675t112 -619q0 -32 -30 -51t-70 -19q-64 0 -96 69t-36 152t-20 152t-52 69h-12q-10 -2 -88 -7t-126 -20t-50 -45 q0 -8 -2 -43t-3 -52t-4 -53t-7 -56t-10 -49t-16 -47t-22 -35t-30 -25t-38 -8q-110 0 -110 136zM318 606q0 -20 30 -20h2l62 6q60 6 101 17t41 29q0 40 -56 239t-74 199q-22 0 -62 -206t-40 -260q0 -2 -2 -2t-2 -2zM348 1510q0 -44 42 -50q6 -2 18 -2q58 0 58 82v16 q-2 20 -14 38t-28 18q-28 0 -52 -34t-24 -68z" />
<glyph unicode="&#xc6;" horiz-adv-x="1236" d="M44 86q0 12 12 126q40 310 102 540q20 76 54 240t68 285t84 213q22 42 64 42q86 0 210 -452q8 188 8 284q0 50 24 66t72 16h30q132 0 208 -8q22 -2 60 -2q16 0 40 1t32 1q54 0 78 -52q8 -16 8 -68v-4q0 -56 -84 -56h-278q-16 0 -16 -26q0 -60 -2 -172t-2 -168 q0 -26 10 -33t38 -9q20 -2 58 -3t64 -3t54 -6t47 -14t27 -24q2 -4 2 -18q0 -26 -14 -60t-30 -44q-18 -12 -30 -12q-18 0 -102 5t-110 5q-10 0 -10 -20v-20q0 -136 2 -156q6 -66 6 -126q0 -10 1 -32t1 -34v-2v-2q0 -24 56 -24h28q16 0 24 2h20q132 0 186 -36t54 -140 q0 -42 -31 -63t-68 -25t-107 -4h-42q-314 0 -320 68q-32 258 -62 330q-10 24 -28 24h-12q-154 -26 -176 -28q-32 -2 -36 -44q-10 -164 -38 -314q-8 -40 -48 -60t-76 -20h-10q-100 18 -100 136zM350 606q0 -20 28 -20h2q118 24 130 28q22 6 22 24q0 10 -2 16q-20 82 -50 202 t-44 182q-4 14 -12 14t-12 -14q-8 -52 -14 -78q-48 -240 -48 -354z" />
<glyph unicode="&#xc7;" horiz-adv-x="814" d="M44 682q0 98 2 166t11 156t26 146t47 120t73 99t106 60t145 23q126 0 226 -85t100 -233q0 -82 -44 -88q-34 -6 -68 -6q-50 0 -68 25t-22 69q-2 46 -43 72t-95 26q-58 0 -94 -35t-52 -104t-21 -131t-5 -152v-106q0 -452 174 -452q88 0 136 64q8 10 19 39t25 47t34 18 q110 0 110 -122q0 -74 -26 -122q-28 -60 -87 -107t-127 -67q-2 -2 -4 -7t-2 -7q-10 -24 -34 -53t-54 -60t-40 -43q-58 -70 -122 -70q-70 0 -70 40q0 24 20 57t58 79t40 48t18 22q-146 50 -219 227t-73 447z" />
<glyph unicode="&#xc8;" horiz-adv-x="618" d="M62 330v146q0 152 7 442t7 446q0 82 112 82h30q52 0 139 -4t137 -4q54 0 78 -52q8 -16 8 -68v-4q0 -28 -26 -49t-58 -21h-216q-14 0 -14 -26q0 -60 -2 -200t-2 -196q0 -26 9 -33t39 -11q18 -2 55 -3t60 -3t49 -8t38 -19t12 -35q0 -128 -66 -128q-18 0 -88 -6t-94 -6 q-10 0 -10 -22q0 -40 1 -151t1 -169v-2v-2q0 -26 64 -26q150 0 200 -17t50 -65q0 -122 -156 -122h-98q-8 0 -22 -1t-20 -1q-142 0 -170 28q-52 56 -52 144v18q0 22 -1 73t-1 75zM90 1778q0 26 14 42t36 16q28 0 72 -20q64 -32 143 -127t91 -163v-4q2 -4 2 -6q0 -26 -28 -26 q-76 0 -203 104t-127 184z" />
<glyph unicode="&#xc9;" horiz-adv-x="618" d="M62 330v146q0 152 7 442t7 446q0 82 112 82h30q52 0 139 -4t137 -4q54 0 78 -52q8 -16 8 -68v-4q0 -28 -26 -49t-58 -21h-216q-14 0 -14 -26q0 -60 -2 -200t-2 -196q0 -26 9 -33t39 -11q18 -2 55 -3t60 -3t49 -8t38 -19t12 -35q0 -128 -66 -128q-18 0 -88 -6t-94 -6 q-10 0 -10 -22q0 -40 1 -151t1 -169v-2v-2q0 -26 64 -26q150 0 200 -17t50 -65q0 -122 -156 -122h-98q-8 0 -22 -1t-20 -1q-142 0 -170 28q-52 56 -52 144v18q0 22 -1 73t-1 75zM178 1516v10q12 68 91 163t143 127q44 20 72 20q22 0 37 -16t15 -42q0 -80 -127 -184 t-203 -104q-28 0 -28 26z" />
<glyph unicode="&#xca;" horiz-adv-x="618" d="M62 330v146q0 152 7 442t7 446q0 82 112 82h30q52 0 139 -4t137 -4q54 0 78 -52q8 -16 8 -68v-4q0 -28 -26 -49t-58 -21h-216q-14 0 -14 -26q0 -60 -2 -200t-2 -196q0 -26 9 -33t39 -11q18 -2 55 -3t60 -3t49 -8t38 -19t12 -35q0 -128 -66 -128q-18 0 -88 -6t-94 -6 q-10 0 -10 -22q0 -40 1 -151t1 -169v-2v-2q0 -26 64 -26q150 0 200 -17t50 -65q0 -122 -156 -122h-98q-8 0 -22 -1t-20 -1q-142 0 -170 28q-52 56 -52 144v18q0 22 -1 73t-1 75zM92 1574q0 34 25 69t41 48t56 43q68 52 116 52q20 0 36 -3t26 -5t24 -12t20 -16t26 -24t30 -28 q40 -36 57 -62t17 -64t-16 -59t-36 -21q-34 0 -122 64q-12 8 -25 22t-22 22t-15 8l-52 -34q-16 -10 -31 -25t-32 -23t-53 -14h-12q-24 0 -41 17t-17 45z" />
<glyph unicode="&#xcb;" horiz-adv-x="618" d="M62 330v146q0 152 7 442t7 446q0 82 112 82h30q52 0 139 -4t137 -4q54 0 78 -52q8 -16 8 -68v-4q0 -28 -26 -49t-58 -21h-216q-14 0 -14 -26q0 -60 -2 -200t-2 -196q0 -26 9 -33t39 -11q18 -2 55 -3t60 -3t49 -8t38 -19t12 -35q0 -128 -66 -128q-18 0 -88 -6t-94 -6 q-10 0 -10 -22q0 -40 1 -151t1 -169v-2v-2q0 -26 64 -26q150 0 200 -17t50 -65q0 -122 -156 -122h-98q-8 0 -22 -1t-20 -1q-142 0 -170 28q-52 56 -52 144v18q0 22 -1 73t-1 75zM102 1568q0 38 31 64t65 26h10q70 -18 70 -66q0 -32 -30 -58t-76 -28h-4q-14 0 -42 12 q-24 10 -24 50zM358 1574q0 32 27 55t55 23q42 0 63 -20t21 -50q0 -34 -24 -62t-62 -28q-24 0 -52 28t-28 54z" />
<glyph unicode="&#xcc;" horiz-adv-x="332" d="M-144 1778q0 26 14 42t36 16q28 0 72 -20q64 -32 143 -127t91 -163v-4q2 -4 2 -6q0 -26 -28 -26q-76 0 -203 104t-127 184zM62 492q0 370 16 802q0 66 26 108t80 42q78 -6 78 -106v-82q0 -74 4 -219t4 -211q0 -38 -2 -111t-2 -111q0 -42 1 -115t1 -111q0 -30 1 -104 t1 -104q0 -168 -82 -168q-36 0 -60 14t-37 33t-19 61t-7 73t-1 95v30v70q0 20 -1 58t-1 56z" />
<glyph unicode="&#xcd;" horiz-adv-x="332" d="M62 492q0 370 16 802q0 66 26 108t80 42q78 -6 78 -106v-82q0 -74 4 -219t4 -211q0 -38 -2 -111t-2 -111q0 -42 1 -115t1 -111q0 -30 1 -104t1 -104q0 -168 -82 -168q-36 0 -60 14t-37 33t-19 61t-7 73t-1 95v30v70q0 20 -1 58t-1 56zM96 1516v10q12 68 91 163t143 127 q44 20 72 20q22 0 37 -16t15 -42q0 -80 -127 -184t-203 -104q-28 0 -28 26z" />
<glyph unicode="&#xce;" horiz-adv-x="332" d="M-50 1536q0 34 25 69t41 48t56 43q68 52 116 52q20 0 36 -3t26 -5t24 -12t20 -16t26 -24t30 -28q40 -36 57 -62t17 -64t-16 -59t-36 -21q-34 0 -122 64q-12 8 -25 22t-22 22t-15 8l-52 -34q-16 -10 -31 -25t-32 -23t-53 -14h-12q-24 0 -41 17t-17 45zM62 492 q0 370 16 802q0 66 26 108t80 42q78 -6 78 -106v-82q0 -74 4 -219t4 -211q0 -38 -2 -111t-2 -111q0 -42 1 -115t1 -111q0 -30 1 -104t1 -104q0 -168 -82 -168q-36 0 -60 14t-37 33t-19 61t-7 73t-1 95v30v70q0 20 -1 58t-1 56z" />
<glyph unicode="&#xcf;" horiz-adv-x="332" d="M-34 1568q0 38 31 64t65 26h10q70 -18 70 -66q0 -32 -30 -58t-76 -28h-4q-14 0 -42 12q-24 10 -24 50zM62 492q0 370 16 802q0 66 26 108t80 42q78 -6 78 -106v-82q0 -74 4 -219t4 -211q0 -38 -2 -111t-2 -111q0 -42 1 -115t1 -111q0 -30 1 -104t1 -104q0 -168 -82 -168 q-36 0 -60 14t-37 33t-19 61t-7 73t-1 95v30v70q0 20 -1 58t-1 56zM222 1574q0 32 27 55t55 23q42 0 63 -20t21 -50q0 -34 -24 -62t-62 -28q-24 0 -52 28t-28 54z" />
<glyph unicode="&#xd0;" horiz-adv-x="924" d="M-30 708v2q0 18 25 37t45 21q4 0 14 2t14 2q2 104 10 308q0 22 1 82t2 96t10 82t25 74q28 48 88 48q144 0 246 -26q196 -44 316 -242q50 -80 94 -260q8 -30 11 -64t5 -78t4 -64v-60q0 -120 -46 -241t-112 -185q-192 -198 -446 -256q-24 -6 -46 -6q-104 0 -132 52 q-36 74 -36 294q0 8 1 25t1 23q0 168 2 252q-96 20 -96 82zM282 1020q0 -238 4 -238q74 0 140 -6q32 -4 68 -30t36 -54q0 -30 -42 -48t-84 -20q-4 0 -43 -3t-73 -5v-72q0 -38 1 -111t1 -111v-18v-16q0 -78 24 -78h6l35 14t39 18q36 18 140 92q174 132 174 422q0 4 -1 10 t-1 8q-2 42 -12 100q-24 144 -96 230q-96 112 -282 124h-6q-28 0 -28 -24v-184z" />
<glyph unicode="&#xd1;" horiz-adv-x="860" d="M64 198q0 132 3 398t3 406q0 86 3 149t14 135t37 111t66 39q118 0 190 -232q24 -76 59 -207t47 -173q10 -34 30 -112t36 -135t34 -101v40q0 140 6 381t6 385q0 158 140 158q40 0 51 -23t11 -75q0 -142 -9 -414t-9 -424q0 -38 2 -98t2 -94q0 -24 2 -73t2 -75q0 -8 1 -32 t1 -36q0 -96 -94 -96q-68 2 -114 52t-64 96q-72 202 -180 646q-10 30 -30 72q-4 2 -8 2q-16 0 -16 -14v-10q0 -120 3 -356t3 -384q0 -52 -28 -77t-60 -25q-140 0 -140 196zM172 1594q0 74 47 111t125 37q34 0 88 -27t84 -27q28 0 56 18q42 24 80 24q46 0 78 -27t32 -75 q0 -44 -22 -67t-66 -43q-44 -22 -156 -22q-42 0 -100 27t-102 27q-18 0 -43 -20t-43 -20q-22 0 -40 28t-18 56z" />
<glyph unicode="&#xd2;" d="M52 650q0 120 10 226t37 215t70 185t116 125t169 49q388 0 388 -820q0 -152 -40 -298t-134 -255t-222 -109q-122 0 -204 54t-122 157t-54 212t-14 259zM184 1778q0 26 14 42t36 16q28 0 72 -20q64 -32 143 -127t91 -163v-4q2 -4 2 -6q0 -26 -28 -26q-76 0 -203 104 t-127 184zM256 682q0 -114 10 -194q12 -144 47 -220t127 -78q54 0 92 67t56 180t25 219t7 224q0 88 -17 176t-61 157t-106 69h-2q-178 0 -178 -600z" />
<glyph unicode="&#xd3;" d="M52 650q0 120 10 226t37 215t70 185t116 125t169 49q388 0 388 -820q0 -152 -40 -298t-134 -255t-222 -109q-122 0 -204 54t-122 157t-54 212t-14 259zM256 682q0 -114 10 -194q12 -144 47 -220t127 -78q54 0 92 67t56 180t25 219t7 224q0 88 -17 176t-61 157t-106 69h-2 q-178 0 -178 -600zM412 1516v10q12 68 91 163t143 127q44 20 72 20q22 0 37 -16t15 -42q0 -80 -127 -184t-203 -104q-28 0 -28 26z" />
<glyph unicode="&#xd4;" d="M52 650q0 120 10 226t37 215t70 185t116 125t169 49q388 0 388 -820q0 -152 -40 -298t-134 -255t-222 -109q-122 0 -204 54t-122 157t-54 212t-14 259zM208 1556q0 34 25 69t41 48t56 43q68 52 116 52q20 0 36 -3t26 -5t24 -12t20 -16t26 -24t30 -28q40 -36 57 -62 t17 -64t-16 -59t-36 -21q-34 0 -122 64q-12 8 -25 22t-22 22t-15 8l-52 -34q-16 -10 -31 -25t-32 -23t-53 -14h-12q-24 0 -41 17t-17 45zM256 682q0 -114 10 -194q12 -144 47 -220t127 -78q54 0 92 67t56 180t25 219t7 224q0 88 -17 176t-61 157t-106 69h-2 q-178 0 -178 -600z" />
<glyph unicode="&#xd5;" d="M52 650q0 120 10 226t37 215t70 185t116 125t169 49q388 0 388 -820q0 -152 -40 -298t-134 -255t-222 -109q-122 0 -204 54t-122 157t-54 212t-14 259zM164 1588q0 74 47 111t125 37q34 0 88 -27t84 -27q28 0 56 18q42 24 80 24q46 0 78 -27t32 -75q0 -44 -22 -67 t-66 -43q-44 -22 -156 -22q-42 0 -100 27t-102 27q-18 0 -43 -20t-43 -20q-22 0 -40 28t-18 56zM256 682q0 -114 10 -194q12 -144 47 -220t127 -78q54 0 92 67t56 180t25 219t7 224q0 88 -17 176t-61 157t-106 69h-2q-178 0 -178 -600z" />
<glyph unicode="&#xd6;" d="M52 650q0 120 10 226t37 215t70 185t116 125t169 49q388 0 388 -820q0 -152 -40 -298t-134 -255t-222 -109q-122 0 -204 54t-122 157t-54 212t-14 259zM236 1568q0 38 31 64t65 26h10q70 -18 70 -66q0 -32 -30 -58t-76 -28h-4q-14 0 -42 12q-24 10 -24 50zM256 682 q0 -114 10 -194q12 -144 47 -220t127 -78q54 0 92 67t56 180t25 219t7 224q0 88 -17 176t-61 157t-106 69h-2q-178 0 -178 -600zM492 1574q0 32 27 55t55 23q42 0 63 -20t21 -50q0 -34 -24 -62t-62 -28q-24 0 -52 28t-28 54z" />
<glyph unicode="&#xd7;" horiz-adv-x="662" d="M50 436q0 24 28 59t70 73t50 48v2l-70 104q-72 104 -72 148q0 34 46 34q72 0 186 -176q10 -16 22 -16q14 0 66 56t115 112t101 56q30 0 30 -46q0 -58 -24 -104t-74 -99t-64 -71q-16 -22 -16 -30q0 -14 34 -57t69 -97t35 -98q0 -40 -46 -40q-28 0 -72 55t-83 110t-55 55 q-30 -8 -59 -49t-62 -77t-77 -36q-34 0 -56 21t-22 63z" />
<glyph unicode="&#xd8;" d="M52 650q0 120 10 226t37 215t70 185t116 125t169 49q108 0 186 -60q54 82 102 82h8q22 -2 48 -32q16 -18 16 -62q0 -12 -4 -40q-8 -58 -38 -152q70 -194 70 -556q0 -152 -40 -298t-134 -255t-222 -109q-116 0 -198 50q-52 -58 -112 -58q-4 0 -8 1t-8 1q-14 2 -28 19 t-14 43v12q6 50 38 148q-64 156 -64 466zM256 682q0 -54 4 -130q128 304 224 496q6 12 26 66t36 92q-46 76 -110 76h-2q-178 0 -178 -600zM360 214q34 -24 80 -24q170 0 180 638l-2 -4l-2 -4q-38 -72 -109 -235t-97 -237q-14 -42 -50 -134z" />
<glyph unicode="&#xd9;" horiz-adv-x="934" d="M50 738q0 58 2 177t2 161q0 234 32 320q16 48 94 48q16 0 28 -13t17 -39t7 -45t4 -52t2 -37q8 -80 8 -233t4 -276t19 -248t62 -196t125 -71h4q36 0 65 23t47 66t31 92t21 116t13 119t10 122t9 106l8 112t12 145t18 131t33 108t51 38q94 0 94 -164v-84v-230 q0 -376 -62 -578q-60 -194 -142 -275t-218 -81q-400 0 -400 738zM264 1718q0 26 14 42t36 16q28 0 72 -20q64 -32 143 -127t91 -163v-4q2 -4 2 -6q0 -26 -28 -26q-76 0 -203 104t-127 184z" />
<glyph unicode="&#xda;" horiz-adv-x="934" d="M50 738q0 58 2 177t2 161q0 234 32 320q16 48 94 48q16 0 28 -13t17 -39t7 -45t4 -52t2 -37q8 -80 8 -233t4 -276t19 -248t62 -196t125 -71h4q36 0 65 23t47 66t31 92t21 116t13 119t10 122t9 106l8 112t12 145t18 131t33 108t51 38q94 0 94 -164v-84v-230 q0 -376 -62 -578q-60 -194 -142 -275t-218 -81q-400 0 -400 738zM350 1456v10q12 68 91 163t143 127q44 20 72 20q22 0 37 -16t15 -42q0 -80 -127 -184t-203 -104q-28 0 -28 26z" />
<glyph unicode="&#xdb;" horiz-adv-x="934" d="M50 738q0 58 2 177t2 161q0 234 32 320q16 48 94 48q16 0 28 -13t17 -39t7 -45t4 -52t2 -37q8 -80 8 -233t4 -276t19 -248t62 -196t125 -71h4q36 0 65 23t47 66t31 92t21 116t13 119t10 122t9 106l8 112t12 145t18 131t33 108t51 38q94 0 94 -164v-84v-230 q0 -376 -62 -578q-60 -194 -142 -275t-218 -81q-400 0 -400 738zM270 1532q0 34 25 69t41 48t56 43q68 52 116 52q20 0 36 -3t26 -5t24 -12t20 -16t26 -24t30 -28q40 -36 57 -62t17 -64t-16 -59t-36 -21q-34 0 -122 64q-12 8 -25 22t-22 22t-15 8l-52 -34q-16 -10 -31 -25 t-32 -23t-53 -14h-12q-24 0 -41 17t-17 45z" />
<glyph unicode="&#xdc;" horiz-adv-x="934" d="M50 738q0 58 2 177t2 161q0 234 32 320q16 48 94 48q16 0 28 -13t17 -39t7 -45t4 -52t2 -37q8 -80 8 -233t4 -276t19 -248t62 -196t125 -71h4q36 0 65 23t47 66t31 92t21 116t13 119t10 122t9 106l8 112t12 145t18 131t33 108t51 38q94 0 94 -164v-84v-230 q0 -376 -62 -578q-60 -194 -142 -275t-218 -81q-400 0 -400 738zM286 1530q0 38 31 64t65 26h10q70 -18 70 -66q0 -32 -30 -58t-76 -28h-4q-14 0 -42 12q-24 10 -24 50zM542 1536q0 32 27 55t55 23q42 0 63 -20t21 -50q0 -34 -24 -62t-62 -28q-24 0 -52 28t-28 54z" />
<glyph unicode="&#xdd;" horiz-adv-x="750" d="M16 1350q0 94 102 94q74 0 132 -129t102 -322t48 -203q12 30 53 211t91 315t106 134h2q26 0 54 -20q16 -14 16 -78v-12q0 -58 -22 -190q-12 -72 -58 -214t-86 -248l-38 -106q4 -54 4 -126q0 -20 -1 -81t-1 -113q0 -170 -26 -237t-122 -67q-50 0 -78 48t-28 116 q0 66 6 194t6 204q0 32 -8 50q-40 100 -118 331t-90 263q-46 134 -46 186zM276 1442v10q12 68 91 163t143 127q44 20 72 20q22 0 37 -16t15 -42q0 -80 -127 -184t-203 -104q-28 0 -28 26z" />
<glyph unicode="&#xde;" horiz-adv-x="726" d="M64 194v282q0 118 8 362t8 366q0 24 4 70t4 68q0 64 26 87t88 23q80 0 80 -212l-6 -106q206 0 309 -106t103 -288q0 -80 -45 -147t-116 -110t-134 -69t-123 -40q-30 -8 -30 -54q0 -20 7 -116t7 -130q0 -80 -90 -80q-88 0 -88 76q-12 26 -12 124zM244 776q0 -86 9 -162 t21 -76q2 0 2 1t2 1q88 30 152 92t64 148t-37 126t-123 40q-10 0 -30 -3t-30 -3q-30 0 -30 -164z" />
<glyph unicode="&#xdf;" horiz-adv-x="958" d="M68 1196q0 152 47 202t135 50q18 0 57 -2t61 -2h2q90 0 191 -30t180 -95t79 -147q0 -122 -63 -208t-169 -110q-22 -6 -22 -26q0 -18 22 -28q110 -44 171 -103t115 -167q46 -82 46 -216q0 -132 -117 -223t-227 -91q-114 0 -174 106t-60 258q0 28 27 54t55 26q22 0 40 -20 q20 -26 25 -84t21 -95t70 -37q50 0 83 57t33 129q0 22 -2 32q-10 74 -54 130t-131 121t-105 81q-24 22 -24 50q0 40 19 67t47 44t56 38t47 61t19 100q0 98 -37 125t-133 27h-70q-32 0 -32 -44q0 -52 3 -143t3 -149q0 -20 1 -57t1 -55v-110q0 -74 -7 -297t-7 -299 q0 -60 -34 -95t-66 -35q-54 0 -85 45t-31 165v762v62q0 18 -3 78t-3 98z" />
<glyph unicode="&#xe0;" horiz-adv-x="784" d="M22 66q0 32 6 68q84 514 298 1182q26 80 54 122q8 12 33 26t51 14q32 0 57 -20t40 -60t23 -67t16 -69q30 -160 92 -532t100 -560q16 -76 16 -102q0 -32 -36 -60t-66 -28q-102 0 -124 130q-4 28 -16 85t-18 95q-2 14 -13 24t-23 10h-2q-40 -4 -68 -4q-16 0 -47 1t-45 1 q-32 0 -46 -2q-34 -6 -38 -54q-4 -60 -10 -102t-21 -88t-45 -70t-72 -24q-54 0 -75 21t-21 63zM136 1808q0 26 14 42t36 16q28 0 72 -20q64 -32 143 -127t91 -163v-4q2 -4 2 -6q0 -26 -28 -26q-76 0 -203 104t-127 184zM302 542q0 -20 16 -20q102 0 186 14q20 4 20 26v6 q-38 334 -80 540q-4 16 -12 16h-2q-6 0 -8 -2t-2 -7v-7q-96 -430 -118 -560v-6z" />
<glyph unicode="&#xe1;" horiz-adv-x="784" d="M22 66q0 32 6 68q84 514 298 1182q26 80 54 122q8 12 33 26t51 14q32 0 57 -20t40 -60t23 -67t16 -69q30 -160 92 -532t100 -560q16 -76 16 -102q0 -32 -36 -60t-66 -28q-102 0 -124 130q-4 28 -16 85t-18 95q-2 14 -13 24t-23 10h-2q-40 -4 -68 -4q-16 0 -47 1t-45 1 q-32 0 -46 -2q-34 -6 -38 -54q-4 -60 -10 -102t-21 -88t-45 -70t-72 -24q-54 0 -75 21t-21 63zM302 542q0 -20 16 -20q102 0 186 14q20 4 20 26v6q-38 334 -80 540q-4 16 -12 16h-2q-6 0 -8 -2t-2 -7v-7q-96 -430 -118 -560v-6zM402 1546v10q12 68 91 163t143 127 q44 20 72 20q22 0 37 -16t15 -42q0 -80 -127 -184t-203 -104q-28 0 -28 26z" />
<glyph unicode="&#xe2;" horiz-adv-x="784" d="M22 66q0 32 6 68q84 514 298 1182q26 80 54 122q8 12 33 26t51 14q32 0 57 -20t40 -60t23 -67t16 -69q30 -160 92 -532t100 -560q16 -76 16 -102q0 -32 -36 -60t-66 -28q-102 0 -124 130q-4 28 -16 85t-18 95q-2 14 -13 24t-23 10h-2q-40 -4 -68 -4q-16 0 -47 1t-45 1 q-32 0 -46 -2q-34 -6 -38 -54q-4 -60 -10 -102t-21 -88t-45 -70t-72 -24q-54 0 -75 21t-21 63zM222 1556q0 34 25 69t41 48t56 43q68 52 116 52q20 0 36 -3t26 -5t24 -12t20 -16t26 -24t30 -28q40 -36 57 -62t17 -64t-16 -59t-36 -21q-34 0 -122 64q-12 8 -25 22t-22 22 t-15 8l-52 -34q-16 -10 -31 -25t-32 -23t-53 -14h-12q-24 0 -41 17t-17 45zM302 542q0 -20 16 -20q102 0 186 14q20 4 20 26v6q-38 334 -80 540q-4 16 -12 16h-2q-6 0 -8 -2t-2 -7v-7q-96 -430 -118 -560v-6z" />
<glyph unicode="&#xe3;" horiz-adv-x="784" d="M22 66q0 32 6 68q84 514 298 1182q26 80 54 122q8 12 33 26t51 14q32 0 57 -20t40 -60t23 -67t16 -69q30 -160 92 -532t100 -560q16 -76 16 -102q0 -32 -36 -60t-66 -28q-102 0 -124 130q-4 28 -16 85t-18 95q-2 14 -13 24t-23 10h-2q-40 -4 -68 -4q-16 0 -47 1t-45 1 q-32 0 -46 -2q-34 -6 -38 -54q-4 -60 -10 -102t-21 -88t-45 -70t-72 -24q-54 0 -75 21t-21 63zM174 1618q0 74 47 111t125 37q34 0 88 -27t84 -27q28 0 56 18q42 24 80 24q46 0 78 -27t32 -75q0 -44 -22 -67t-66 -43q-44 -22 -156 -22q-42 0 -100 27t-102 27q-18 0 -43 -20 t-43 -20q-22 0 -40 28t-18 56zM302 542q0 -20 16 -20q102 0 186 14q20 4 20 26v6q-38 334 -80 540q-4 16 -12 16h-2q-6 0 -8 -2t-2 -7v-7q-96 -430 -118 -560v-6z" />
<glyph unicode="&#xe4;" horiz-adv-x="784" d="M22 66q0 32 6 68q84 514 298 1182q26 80 54 122q8 12 33 26t51 14q32 0 57 -20t40 -60t23 -67t16 -69q30 -160 92 -532t100 -560q16 -76 16 -102q0 -32 -36 -60t-66 -28q-102 0 -124 130q-4 28 -16 85t-18 95q-2 14 -13 24t-23 10h-2q-40 -4 -68 -4q-16 0 -47 1t-45 1 q-32 0 -46 -2q-34 -6 -38 -54q-4 -60 -10 -102t-21 -88t-45 -70t-72 -24q-54 0 -75 21t-21 63zM256 1568q0 38 31 64t65 26h10q70 -18 70 -66q0 -32 -30 -58t-76 -28h-4q-14 0 -42 12q-24 10 -24 50zM302 542q0 -20 16 -20q102 0 186 14q20 4 20 26v6q-38 334 -80 540 q-4 16 -12 16h-2q-6 0 -8 -2t-2 -7v-7q-96 -430 -118 -560v-6zM512 1574q0 32 27 55t55 23q42 0 63 -20t21 -50q0 -34 -24 -62t-62 -28q-24 0 -52 28t-28 54z" />
<glyph unicode="&#xe5;" horiz-adv-x="784" d="M22 66q0 32 6 68q84 514 298 1182q20 58 30 78q-62 68 -62 174q0 10 4 30q34 180 204 180q68 0 99 -43t37 -125q2 -14 2 -44q0 -148 -70 -190q18 -52 30 -114q30 -160 92 -532t100 -560q16 -76 16 -102q0 -32 -36 -60t-66 -28q-102 0 -124 130q-4 28 -16 85t-18 95 q-2 14 -13 24t-23 10h-2q-40 -4 -68 -4q-16 0 -47 1t-45 1q-32 0 -46 -2q-34 -6 -38 -54q-4 -60 -10 -102t-21 -88t-45 -70t-72 -24q-54 0 -75 21t-21 63zM302 542q0 -20 16 -20q102 0 186 14q20 4 20 26v6q-38 334 -80 540q-4 16 -12 16h-2q-6 0 -8 -2t-2 -7v-7 q-96 -430 -118 -560v-6zM394 1554q0 -44 42 -50q6 -2 18 -2q58 0 58 80v18q-2 20 -14 37t-28 17q-28 0 -52 -33t-24 -67z" />
<glyph unicode="&#xe6;" horiz-adv-x="1086" d="M22 66q0 32 6 68q16 100 76 382q10 46 42 152t40 144q50 230 140 504q26 80 54 122q8 12 33 26t51 14q56 0 90 -62q18 22 54 22q58 0 104 -1t106 -1h30q44 0 72 -2t62 -10t51 -28t17 -50q0 -48 -20 -71t-44 -27t-76 -4h-8q-18 0 -45 1t-45 1h-2q-20 0 -30 -2t-17 -10 t-7 -26v-20q0 -44 -1 -128t-1 -126q0 -40 -1 -107t-1 -91q2 -38 70 -38h30q0 -2 16 -2q38 0 57 -4t37 -28t18 -72v-16q-4 -68 -114 -68q-14 0 -58 1t-56 1q-16 0 -16 -92q0 -36 3 -93t3 -61q0 -66 38 -66h2q46 0 87 1t87 1q50 0 74 -24t24 -82q0 -2 -1 -10t-1 -10 q-4 -56 -29 -75t-77 -19q-18 0 -70 3t-86 3t-89 1t-75 1h-2q-64 0 -85 19t-21 65q0 76 8 248q-8 4 -14 4h-2q-40 -4 -68 -4q-16 0 -47 1t-45 1q-44 0 -63 -10t-21 -46q-4 -60 -10 -102t-21 -88t-45 -70t-72 -24q-54 0 -75 21t-21 63zM302 494q0 -20 16 -20q102 0 186 14 q20 4 20 24v6q-2 14 -2 90v198q0 386 -38 386h-2q-18 0 -46 -92t-57 -224t-48 -226t-29 -150v-6z" />
<glyph unicode="&#xe7;" horiz-adv-x="796" d="M44 614q0 110 5 196t20 188t45 176t76 138t120 98t168 34q116 0 200 -88t88 -210v-6q0 -68 -32 -94t-100 -28q-96 0 -96 58q0 66 -25 97t-53 31q-196 0 -196 -520q0 -468 148 -468q44 0 86 26t42 66q0 136 116 136q52 0 78 -44t26 -108q0 -118 -75 -197t-187 -105 q-10 -24 -34 -53t-54 -60t-40 -43q-58 -70 -122 -70q-68 0 -68 40q0 18 15 46t32 50t40 51t29 37q4 4 6 8q-258 84 -258 618z" />
<glyph unicode="&#xe8;" horiz-adv-x="634" d="M56 1772q0 26 14 42t36 16q28 0 72 -20q64 -32 143 -127t91 -163v-4q2 -4 2 -6q0 -26 -28 -26q-76 0 -203 104t-127 184zM64 92q0 76 4 243t4 247v380q0 158 8 308v58q0 62 14 90t60 28q58 0 104 -1t106 -1h30q44 0 72 -2t61 -10t50 -28t17 -50q0 -36 -8 -57t-31 -30 t-41 -11t-58 -2h-8h-90h-2q-20 0 -30 -2t-17 -10t-7 -26v-20q0 -44 -1 -132t-1 -130l-2 -40q-2 0 -2 -24q2 -36 72 -36l30 -2q0 -2 16 -2q38 0 57 -4t37 -28t18 -72v-16q-4 -68 -114 -68q-14 0 -59 1t-57 1q-14 0 -14 -226q0 -32 3 -81t3 -53q0 -64 38 -64h2q46 0 87 1t87 1 q98 0 98 -108q0 -2 -1 -10t-1 -10q-4 -56 -29 -75t-77 -19q-18 0 -70 3t-86 3t-89 1t-75 1h-2q-64 0 -85 19t-21 65z" />
<glyph unicode="&#xe9;" horiz-adv-x="634" d="M64 92q0 76 4 243t4 247v380q0 158 8 308v58q0 62 14 90t60 28q58 0 104 -1t106 -1h30q44 0 72 -2t61 -10t50 -28t17 -50q0 -36 -8 -57t-31 -30t-41 -11t-58 -2h-8h-90h-2q-20 0 -30 -2t-17 -10t-7 -26v-20q0 -44 -1 -132t-1 -130l-2 -40q-2 0 -2 -24q2 -36 72 -36l30 -2 q0 -2 16 -2q38 0 57 -4t37 -28t18 -72v-16q-4 -68 -114 -68q-14 0 -59 1t-57 1q-14 0 -14 -226q0 -32 3 -81t3 -53q0 -64 38 -64h2q46 0 87 1t87 1q98 0 98 -108q0 -2 -1 -10t-1 -10q-4 -56 -29 -75t-77 -19q-18 0 -70 3t-86 3t-89 1t-75 1h-2q-64 0 -85 19t-21 65z M218 1510v10q12 68 91 163t143 127q44 20 72 20q22 0 37 -16t15 -42q0 -80 -127 -184t-203 -104q-28 0 -28 26z" />
<glyph unicode="&#xea;" horiz-adv-x="634" d="M64 92q0 76 4 243t4 247v380q0 158 8 308v58q0 62 14 90t60 28q58 0 104 -1t106 -1h30q44 0 72 -2t61 -10t50 -28t17 -50q0 -36 -8 -57t-31 -30t-41 -11t-58 -2h-8h-90h-2q-20 0 -30 -2t-17 -10t-7 -26v-20q0 -44 -1 -132t-1 -130l-2 -40q-2 0 -2 -24q2 -36 72 -36l30 -2 q0 -2 16 -2q38 0 57 -4t37 -28t18 -72v-16q-4 -68 -114 -68q-14 0 -59 1t-57 1q-14 0 -14 -226q0 -32 3 -81t3 -53q0 -64 38 -64h2q46 0 87 1t87 1q98 0 98 -108q0 -2 -1 -10t-1 -10q-4 -56 -29 -75t-77 -19q-18 0 -70 3t-86 3t-89 1t-75 1h-2q-64 0 -85 19t-21 65z M100 1566q0 34 25 69t41 48t56 43q68 52 116 52q20 0 36 -3t26 -5t24 -12t20 -16t26 -24t30 -28q40 -36 57 -62t17 -64t-16 -59t-36 -21q-34 0 -122 64q-12 8 -25 22t-22 22t-15 8l-52 -34q-16 -10 -31 -25t-32 -23t-53 -14h-12q-24 0 -41 17t-17 45z" />
<glyph unicode="&#xeb;" horiz-adv-x="634" d="M64 92q0 76 4 243t4 247v380q0 158 8 308v58q0 62 14 90t60 28q58 0 104 -1t106 -1h30q44 0 72 -2t61 -10t50 -28t17 -50q0 -36 -8 -57t-31 -30t-41 -11t-58 -2h-8h-90h-2q-20 0 -30 -2t-17 -10t-7 -26v-20q0 -44 -1 -132t-1 -130l-2 -40q-2 0 -2 -24q2 -36 72 -36l30 -2 q0 -2 16 -2q38 0 57 -4t37 -28t18 -72v-16q-4 -68 -114 -68q-14 0 -59 1t-57 1q-14 0 -14 -226q0 -32 3 -81t3 -53q0 -64 38 -64h2q46 0 87 1t87 1q98 0 98 -108q0 -2 -1 -10t-1 -10q-4 -56 -29 -75t-77 -19q-18 0 -70 3t-86 3t-89 1t-75 1h-2q-64 0 -85 19t-21 65z M112 1562q0 38 31 64t65 26h10q70 -18 70 -66q0 -32 -30 -58t-76 -28h-4q-14 0 -42 12q-24 10 -24 50zM368 1568q0 32 27 55t55 23q42 0 63 -20t21 -50q0 -34 -24 -62t-62 -28q-24 0 -52 28t-28 54z" />
<glyph unicode="&#xec;" horiz-adv-x="342" d="M-122 1716q0 26 14 42t36 16q28 0 72 -20q64 -32 143 -127t91 -163v-4q2 -4 2 -6q0 -26 -28 -26q-76 0 -203 104t-127 184zM54 276q0 76 8 349t8 351q0 354 86 354q36 0 62 -19t39 -47t20 -77t9 -89t2 -104q0 -116 -2 -426t-2 -406q0 -46 -2 -68t-11 -49t-31 -38t-60 -11 h-14q-10 0 -20 6q-92 48 -92 274z" />
<glyph unicode="&#xed;" horiz-adv-x="342" d="M54 276q0 76 8 349t8 351q0 354 86 354q36 0 62 -19t39 -47t20 -77t9 -89t2 -104q0 -116 -2 -426t-2 -406q0 -46 -2 -68t-11 -49t-31 -38t-60 -11h-14q-10 0 -20 6q-92 48 -92 274zM136 1448v10q12 68 91 163t143 127q44 20 72 20q22 0 37 -16t15 -42q0 -80 -127 -184 t-203 -104q-28 0 -28 26z" />
<glyph unicode="&#xee;" horiz-adv-x="342" d="M0 1426q0 28 17.5 57t28.5 39.5t39 35.5q47 42 80 42q14 0 25 -2.5t18 -4t17 -9.5t14 -13t18 -20t21 -23q28 -30 39.5 -51t11.5 -52.5t-11 -48.5t-25 -17q-23 0 -85 52q-8 7 -17 18.5t-15.5 18t-10.5 6.5l-36 -28q-11 -8 -21.5 -20.5t-22 -19t-36.5 -11.5h-9 q-16 0 -28 14t-12 37zM54 276q0 76 8 349t8 351q0 354 86 354q36 0 62 -19t39 -47t20 -77t9 -89t2 -104q0 -116 -2 -426t-2 -406q0 -46 -2 -68t-11 -49t-31 -38t-60 -11h-14q-10 0 -20 6q-92 48 -92 274z" />
<glyph unicode="&#xef;" horiz-adv-x="342" d="M-16 1496q0 38 31 64t65 26h10q70 -18 70 -66q0 -32 -30 -58t-76 -28h-4q-14 0 -42 12q-24 10 -24 50zM54 276q0 76 8 349t8 351q0 354 86 354q36 0 62 -19t39 -47t20 -77t9 -89t2 -104q0 -116 -2 -426t-2 -406q0 -46 -2 -68t-11 -49t-31 -38t-60 -11h-14q-10 0 -20 6 q-92 48 -92 274zM240 1502q0 32 27 55t55 23q42 0 63 -20t21 -50q0 -34 -24 -62t-62 -28q-24 0 -52 28t-28 54z" />
<glyph unicode="&#xf0;" horiz-adv-x="792" d="M-30 708v2q0 18 25 37t45 21q4 0 14 2t14 2q2 54 7 168t7 174q2 110 18 258q8 68 120 76h50q84 0 160 -14q258 -54 312 -406q10 -56 10 -124q0 -360 -124 -603t-380 -321q-22 -6 -46 -6q-8 0 -28 1t-32 1q-62 0 -66 94q0 38 -6 109t-6 109v20q-2 58 -2 172q0 100 2 148 q-94 16 -94 80zM312 970q2 -72 6 -188q70 -6 92 -8q30 -4 62 -28t32 -54t-42 -48t-84 -20q-8 0 -27 -1t-29 -1q0 -58 2 -92v-14q2 -24 2 -72v-122q0 -52 2 -80q0 -18 16 -18q78 0 157 227t79 401q0 66 -2 107t-9 97t-22 90t-40 67t-66 50t-97 19h-2q-30 0 -30 -46v-20v-12 v-144v-60v-30z" />
<glyph unicode="&#xf1;" horiz-adv-x="972" d="M60 194v76q0 34 1 90t1 74q0 20 1 59t1 59v160q0 326 18 518q6 60 13 89t31 58t68 33h12q64 0 150 -165t179 -404t119 -291q48 -96 54 -96t6 24q0 8 -1 23t-1 17q4 148 4 210q0 96 -4 271t-4 261q0 116 23 154t87 38q104 0 104 -194q0 -32 1 -87t1 -67q0 -140 -3 -406 t-3 -404q0 -94 -27 -178t-85 -98l-15 -5t-17 -5t-16 -2q-40 0 -75 26t-62 75t-44 88t-37 96t-26 71q-16 38 -47 123t-53 133q-6 12 -46 110t-68 140q-2 2 -5 9t-7 12t-8 5q-18 0 -18 -120q0 -128 8 -292t8 -266q0 -50 -1 -74t-7 -60t-17 -52t-33 -29t-56 -13q-18 0 -28 2 q-48 6 -62 57t-14 147zM204 1562q0 74 47 111t125 37q34 0 88 -27t84 -27q28 0 56 18q42 24 80 24q46 0 78 -27t32 -75q0 -44 -22 -67t-66 -43q-44 -22 -156 -22q-42 0 -100 27t-102 27q-18 0 -43 -20t-43 -20q-22 0 -40 28t-18 56z" />
<glyph unicode="&#xf2;" horiz-adv-x="794" d="M52 704q0 106 17 223t55 239t111 200t169 78q102 0 175 -81t108 -217t49 -267t14 -275q0 -172 -36 -307t-122 -224t-216 -89q-324 0 -324 720zM160 1772q0 26 14 42t36 16q28 0 72 -20q64 -32 143 -127t91 -163v-4q2 -4 2 -6q0 -26 -28 -26q-76 0 -203 104t-127 184z M254 702q0 -220 29 -374t87 -154q70 0 116 114t46 324v36q0 72 -1 123t-5 127t-12 128t-22 103t-37 77t-53 26q-64 0 -106 -161t-42 -369z" />
<glyph unicode="&#xf3;" horiz-adv-x="794" d="M52 704q0 106 17 223t55 239t111 200t169 78q102 0 175 -81t108 -217t49 -267t14 -275q0 -172 -36 -307t-122 -224t-216 -89q-324 0 -324 720zM254 702q0 -220 29 -374t87 -154q70 0 116 114t46 324v36q0 72 -1 123t-5 127t-12 128t-22 103t-37 77t-53 26 q-64 0 -106 -161t-42 -369zM378 1510v10q12 68 91 163t143 127q44 20 72 20q22 0 37 -16t15 -42q0 -80 -127 -184t-203 -104q-28 0 -28 26z" />
<glyph unicode="&#xf4;" horiz-adv-x="794" d="M52 704q0 106 17 223t55 239t111 200t169 78q102 0 175 -81t108 -217t49 -267t14 -275q0 -172 -36 -307t-122 -224t-216 -89q-324 0 -324 720zM170 1536q0 34 25 69t41 48t56 43q68 52 116 52q20 0 36 -3t26 -5t24 -12t20 -16t26 -24t30 -28q40 -36 57 -62t17 -64 t-16 -59t-36 -21q-34 0 -122 64q-12 8 -25 22t-22 22t-15 8l-52 -34q-16 -10 -31 -25t-32 -23t-53 -14h-12q-24 0 -41 17t-17 45zM254 702q0 -220 29 -374t87 -154q70 0 116 114t46 324v36q0 72 -1 123t-5 127t-12 128t-22 103t-37 77t-53 26q-64 0 -106 -161t-42 -369z" />
<glyph unicode="&#xf5;" horiz-adv-x="794" d="M52 704q0 106 17 223t55 239t111 200t169 78q102 0 175 -81t108 -217t49 -267t14 -275q0 -172 -36 -307t-122 -224t-216 -89q-324 0 -324 720zM146 1582q0 74 47 111t125 37q34 0 88 -27t84 -27q28 0 56 18q42 24 80 24q46 0 78 -27t32 -75q0 -44 -22 -67t-66 -43 q-44 -22 -156 -22q-42 0 -100 27t-102 27q-18 0 -43 -20t-43 -20q-22 0 -40 28t-18 56zM254 702q0 -220 29 -374t87 -154q70 0 116 114t46 324v36q0 72 -1 123t-5 127t-12 128t-22 103t-37 77t-53 26q-64 0 -106 -161t-42 -369z" />
<glyph unicode="&#xf6;" horiz-adv-x="794" d="M52 704q0 106 17 223t55 239t111 200t169 78q102 0 175 -81t108 -217t49 -267t14 -275q0 -172 -36 -307t-122 -224t-216 -89q-324 0 -324 720zM186 1562q0 38 31 64t65 26h10q70 -18 70 -66q0 -32 -30 -58t-76 -28h-4q-14 0 -42 12q-24 10 -24 50zM254 702 q0 -220 29 -374t87 -154q70 0 116 114t46 324v36q0 72 -1 123t-5 127t-12 128t-22 103t-37 77t-53 26q-64 0 -106 -161t-42 -369zM442 1568q0 32 27 55t55 23q42 0 63 -20t21 -50q0 -34 -24 -62t-62 -28q-24 0 -52 28t-28 54z" />
<glyph unicode="&#xf7;" horiz-adv-x="868" d="M48 802q24 146 106 146h524q60 0 106 -46t46 -108q0 -80 -194 -80q-90 0 -241 4t-241 4q-106 0 -106 80zM296 496q0 34 42 68t78 34t65 -48t29 -100q0 -86 -72 -86h-4q-84 4 -112 42q-26 32 -26 90zM358 1098q0 42 32 70t76 28q34 0 55 -32t21 -74q0 -38 -18 -65t-50 -27 q-36 0 -76 33t-40 67z" />
<glyph unicode="&#xf8;" horiz-adv-x="794" d="M52 704q0 106 17 223t55 239t111 200t169 78q76 0 142 -52q30 54 54 56h4q22 0 50 -22q14 -14 14 -30q0 -12 -6 -44q-6 -30 -18 -94q106 -224 106 -654q0 -194 -52 -388q-38 -132 -140 -201t-182 -69q-40 0 -82 24q-18 -38 -44 -38q-16 0 -34 18t-20 48v12q0 30 2 46 q-112 142 -132 368q-14 126 -14 280zM254 702q0 -134 12 -248q102 462 156 574q8 16 48 154q-28 50 -68 50q-64 0 -106 -161t-42 -369zM358 178q4 -2 12 -2q18 0 38 12q44 24 84 131t40 293v36q0 104 -2 160q-14 -46 -43 -149t-61 -221t-40 -148q-20 -76 -28 -112z" />
<glyph unicode="&#xf9;" horiz-adv-x="856" d="M48 992v114q0 332 116 332q54 0 54 -354v-74v-48q4 -44 5 -162t7 -216t21 -204t52 -167t95 -61q62 8 101 152t50 279t11 245v68q0 36 -4 131t-4 141q0 138 31 211t123 73q62 0 79 -33t17 -111v-98q0 -82 3 -235t3 -257q0 -340 -78 -530q-44 -106 -124 -157t-166 -51 q-64 0 -116 23t-90 59t-68 96t-50 115t-33 139t-20 144t-10 154t-4 145t-1 137zM156 1718q0 26 14 42t36 16q28 0 72 -20q64 -32 143 -127t91 -163v-4q2 -4 2 -6q0 -26 -28 -26q-76 0 -203 104t-127 184z" />
<glyph unicode="&#xfa;" horiz-adv-x="856" d="M48 992v114q0 332 116 332q54 0 54 -354v-74v-48q4 -44 5 -162t7 -216t21 -204t52 -167t95 -61q62 8 101 152t50 279t11 245v68q0 36 -4 131t-4 141q0 138 31 211t123 73q62 0 79 -33t17 -111v-98q0 -82 3 -235t3 -257q0 -340 -78 -530q-44 -106 -124 -157t-166 -51 q-64 0 -116 23t-90 59t-68 96t-50 115t-33 139t-20 144t-10 154t-4 145t-1 137zM280 1440v10q12 68 91 163t143 127q44 20 72 20q22 0 37 -16t15 -42q0 -80 -127 -184t-203 -104q-28 0 -28 26z" />
<glyph unicode="&#xfb;" horiz-adv-x="856" d="M48 992v114q0 332 116 332q54 0 54 -354v-74v-48q4 -44 5 -162t7 -216t21 -204t52 -167t95 -61q62 8 101 152t50 279t11 245v68q0 36 -4 131t-4 141q0 138 31 211t123 73q62 0 79 -33t17 -111v-98q0 -82 3 -235t3 -257q0 -340 -78 -530q-44 -106 -124 -157t-166 -51 q-64 0 -116 23t-90 59t-68 96t-50 115t-33 139t-20 144t-10 154t-4 145t-1 137zM178 1574q0 34 25 69t41 48t56 43q68 52 116 52q20 0 36 -3t26 -5t24 -12t20 -16t26 -24t30 -28q40 -36 57 -62t17 -64t-16 -59t-36 -21q-34 0 -122 64q-12 8 -25 22t-22 22t-15 8l-52 -34 q-16 -10 -31 -25t-32 -23t-53 -14h-12q-24 0 -41 17t-17 45z" />
<glyph unicode="&#xfc;" horiz-adv-x="856" d="M48 992v114q0 332 116 332q54 0 54 -354v-74v-48q4 -44 5 -162t7 -216t21 -204t52 -167t95 -61q62 8 101 152t50 279t11 245v68q0 36 -4 131t-4 141q0 138 31 211t123 73q62 0 79 -33t17 -111v-98q0 -82 3 -235t3 -257q0 -340 -78 -530q-44 -106 -124 -157t-166 -51 q-64 0 -116 23t-90 59t-68 96t-50 115t-33 139t-20 144t-10 154t-4 145t-1 137zM188 1544q0 38 31 64t65 26h10q70 -18 70 -66q0 -32 -30 -58t-76 -28h-4q-14 0 -42 12q-24 10 -24 50zM444 1550q0 32 27 55t55 23q42 0 63 -20t21 -50q0 -34 -24 -62t-62 -28q-24 0 -52 28 t-28 54z" />
<glyph unicode="&#xfd;" horiz-adv-x="814" d="M10 1326q0 48 25 81t69 33q38 0 88 -74q40 -60 91 -196t92 -232t69 -96q14 0 65 136t69 200q32 106 86 224q24 52 56 52h2q30 0 55 -28t25 -80q0 -68 -14 -138t-23 -101t-46 -121t-45 -110q-20 -50 -60 -116t-69 -113t-29 -65q0 -50 1 -124t1 -148q0 -14 2 -65t2 -81 q0 -182 -82 -182q-88 0 -118 65t-30 175q0 58 10 168t10 154q-8 52 -34 116q-28 64 -86 183t-92 205q-10 24 -30 74t-31 77t-20 63t-9 64zM296 1428v10q12 68 91 163t143 127q44 20 72 20q22 0 37 -16t15 -42q0 -80 -127 -184t-203 -104q-28 0 -28 26z" />
<glyph unicode="&#xfe;" horiz-adv-x="838" d="M54 -108q0 20 4 57t4 51q14 324 14 1204q0 146 20 274t72 128q56 0 87 -44t31 -108q0 -26 -3 -79t-3 -77q0 -12 -1 -32t-1 -28q0 -50 20 -50q244 0 376 -132t132 -364q0 -166 -104 -296t-276 -154q-8 0 -32 -3t-34 -4t-28 -7t-25 -15t-14 -26t-7 -39q0 -54 -4 -106 t-15 -116t-36 -103t-63 -39q-52 0 -83 32t-31 76zM288 710q0 -274 14 -284q32 -14 56 -14q92 0 172 108t80 216q0 210 -230 210q-8 0 -20 1t-18 1q-18 0 -36 -8t-18 -230z" />
<glyph unicode="&#xff;" horiz-adv-x="814" d="M10 1326q0 48 25 81t69 33q38 0 88 -74q40 -60 91 -196t92 -232t69 -96q14 0 65 136t69 200q32 106 86 224q24 52 56 52h2q30 0 55 -28t25 -80q0 -68 -14 -138t-23 -101t-46 -121t-45 -110q-20 -50 -60 -116t-69 -113t-29 -65q0 -50 1 -124t1 -148q0 -14 2 -65t2 -81 q0 -182 -82 -182q-88 0 -118 65t-30 175q0 58 10 168t10 154q-8 52 -34 116q-28 64 -86 183t-92 205q-10 24 -30 74t-31 77t-20 63t-9 64zM202 1522q0 38 31 64t65 26h10q70 -18 70 -66q0 -32 -30 -58t-76 -28h-4q-14 0 -42 12q-24 10 -24 50zM458 1528q0 32 27 55t55 23 q42 0 63 -20t21 -50q0 -34 -24 -62t-62 -28q-24 0 -52 28t-28 54z" />
<glyph unicode="&#x152;" horiz-adv-x="1146" d="M50 650q0 154 18 284t60 252t125 193t201 71q116 0 200 -74q4 70 96 70h28q52 0 124 -4t122 -4q54 0 78 -52q8 -16 8 -68v-4q0 -56 -84 -56h-184q-14 0 -14 -26q0 -78 -4 -286q14 -120 16 -220q12 -2 30 -6q20 -2 51 -3t47 -2t34 -5t30 -13t20 -25q2 -4 2 -18 q0 -26 -14 -61t-28 -45q-18 -12 -32 -12q-20 0 -68 5t-72 5q-4 -64 -8 -92q4 -68 4 -100q0 -10 1 -32t1 -34v-2v-2q0 -24 54 -24q150 0 185 -23t35 -121q0 -122 -156 -122h-68q-8 0 -20 -1t-20 -1q-142 0 -170 28q-12 16 -18 22q-72 -62 -172 -62q-188 0 -301 149t-133 357 q-4 104 -4 164zM242 682q0 -130 8 -194q12 -138 53 -217t135 -81h2q178 0 178 690q0 90 -17 182t-60 168t-105 76h-2q-54 0 -93 -59t-60 -156t-30 -199t-9 -210z" />
<glyph unicode="&#x153;" horiz-adv-x="1040" d="M50 704q0 140 30 304t101 300t163 136q82 0 148 -54q12 48 68 48q58 0 104 -1t106 -1h28q44 0 72 -2t62 -10t51 -28t17 -50q0 -20 -6 -44q-12 -56 -76 -56q-16 0 -37 -1t-27 -1q-18 0 -46 1t-46 1h-28q-28 0 -28 -38v-20q0 -44 -1 -128t-1 -126q0 -10 1 -28t1 -26 q8 -46 16 -150q12 -14 52 -14h28q2 -2 18 -2q112 0 112 -122v-16q-4 -68 -114 -68q-14 0 -41 1t-39 1q-8 0 -16 -4q-6 -102 -26 -198q2 -20 9 -27t27 -7h2q46 0 87 1t87 1q98 0 98 -132q0 -4 -1 -12t-1 -10q-6 -90 -64 -113t-198 -23q-34 0 -89 1t-75 1h-2q-40 0 -60 6 q-74 -48 -142 -48q-102 0 -197 137t-113 341q-14 126 -14 280zM254 702q0 -220 28 -373t86 -153q16 0 38 12q42 24 72 96q0 8 1 26t1 28q2 40 3 122t3 122q-8 304 -8 380v78q-52 192 -136 192q-38 0 -63 -160t-25 -370z" />
<glyph unicode="&#x178;" horiz-adv-x="750" d="M16 1350q0 94 102 94q74 0 132 -129t102 -322t48 -203q12 30 53 211t91 315t106 134h2q26 0 54 -20q16 -14 16 -78v-12q0 -58 -22 -190q-12 -72 -58 -214t-86 -248l-38 -106q4 -54 4 -126q0 -20 -1 -81t-1 -113q0 -170 -26 -237t-122 -67q-50 0 -78 48t-28 116 q0 66 6 194t6 204q0 32 -8 50q-40 100 -118 331t-90 263q-46 134 -46 186zM182 1542q0 38 31 64t65 26h10q70 -18 70 -66q0 -32 -30 -58t-76 -28h-4q-14 0 -42 12q-24 10 -24 50zM438 1548q0 32 27 55t55 23q42 0 63 -20t21 -50q0 -34 -24 -62t-62 -28q-24 0 -52 28t-28 54z " />
<glyph unicode="&#x2c6;" horiz-adv-x="586" d="M66 1260q0 34 25 69t41 48t56 43q68 52 116 52q20 0 36 -3t26 -5t24 -12t20 -16t26 -24t30 -28q40 -36 57 -62t17 -64t-16 -59t-36 -21q-34 0 -122 64q-12 8 -25 22t-22 22t-15 8l-52 -34q-16 -10 -31 -25t-32 -23t-53 -14h-12q-24 0 -41 17t-17 45z" />
<glyph unicode="&#x2dc;" horiz-adv-x="742" d="M84 1478q0 74 47 111t125 37q34 0 88 -27t84 -27q28 0 56 18q42 24 80 24q46 0 78 -27t32 -75q0 -44 -22 -67t-66 -43q-44 -22 -156 -22q-42 0 -100 27t-102 27q-18 0 -43 -20t-43 -20q-22 0 -40 28t-18 56z" />
<glyph unicode="&#x2000;" horiz-adv-x="933" />
<glyph unicode="&#x2001;" horiz-adv-x="1866" />
<glyph unicode="&#x2002;" horiz-adv-x="933" />
<glyph unicode="&#x2003;" horiz-adv-x="1866" />
<glyph unicode="&#x2004;" horiz-adv-x="622" />
<glyph unicode="&#x2005;" horiz-adv-x="466" />
<glyph unicode="&#x2006;" horiz-adv-x="311" />
<glyph unicode="&#x2007;" horiz-adv-x="311" />
<glyph unicode="&#x2008;" horiz-adv-x="233" />
<glyph unicode="&#x2009;" horiz-adv-x="373" />
<glyph unicode="&#x200a;" horiz-adv-x="103" />
<glyph unicode="&#x2010;" horiz-adv-x="720" d="M68 604v2q0 102 230 102h8q34 0 103 -2t117 -2q148 0 148 -102q0 -126 -342 -126q-136 0 -200 27t-64 101z" />
<glyph unicode="&#x2011;" horiz-adv-x="720" d="M68 604v2q0 102 230 102h8q34 0 103 -2t117 -2q148 0 148 -102q0 -126 -342 -126q-136 0 -200 27t-64 101z" />
<glyph unicode="&#x2012;" horiz-adv-x="720" d="M68 604v2q0 102 230 102h8q34 0 103 -2t117 -2q148 0 148 -102q0 -126 -342 -126q-136 0 -200 27t-64 101z" />
<glyph unicode="&#x2013;" horiz-adv-x="970" d="M70 598q0 76 31 102t91 26q18 0 60 -3t66 -3h36q80 6 148 6q28 0 114 2t106 2q182 0 198 -130v-18q0 -48 -37 -74t-77 -31t-102 -5q-10 0 -26 1t-24 1q-26 0 -91 -1t-101 -1q-250 0 -340 48q-52 30 -52 78z" />
<glyph unicode="&#x2014;" horiz-adv-x="1324" d="M70 528v10q4 62 29 91t85 29h148q54 0 165 2t165 2q348 0 554 -46q24 -6 42 -47t18 -77q0 -86 -244 -86h-22q-462 0 -666 8q-10 0 -37 1t-41 2t-40 4t-40 6t-36 9t-33 14t-24 19t-18 26t-5 33z" />
<glyph unicode="&#x2018;" horiz-adv-x="386" d="M62 1138q0 102 68 202t156 108h10q18 0 34 -17t16 -37q0 -28 -38 -67t-38 -71q0 -28 32 -76t32 -84q0 -48 -49 -76t-111 -28q-46 0 -79 45t-33 101z" />
<glyph unicode="&#x2019;" horiz-adv-x="374" d="M58 1334q0 46 42 83t96 37q56 0 94 -60t38 -124v-14q-2 -62 -18 -122t-54 -109t-92 -49q-20 0 -35 15t-15 33q0 24 19 65t19 67q0 34 -47 84t-47 94z" />
<glyph unicode="&#x201a;" horiz-adv-x="396" d="M66 292q0 42 54 82t100 40q56 0 93 -60t37 -124v-14q-2 -62 -18 -122t-54 -109t-92 -49q-20 0 -34 15t-14 33q0 24 18 64t18 66q0 34 -54 84t-54 94z" />
<glyph unicode="&#x201c;" horiz-adv-x="706" d="M62 1144q0 102 68 202t156 108h10q18 0 34 -17t16 -37q0 -26 -38 -67t-38 -71t32 -78t32 -82q0 -48 -49 -76t-111 -28q-48 0 -80 44t-32 102zM378 1132q0 102 68 201t158 107h8q20 0 36 -15t16 -37q0 -30 -38 -68t-38 -70q0 -30 31 -78t31 -82q0 -50 -48 -77t-110 -27 q-46 0 -80 45t-34 101z" />
<glyph unicode="&#x201d;" horiz-adv-x="710" d="M58 1312q0 42 53 82t99 40q56 0 94 -60t38 -124q0 -2 -1 -7t-1 -9q-4 -104 -44 -191t-120 -87q-18 0 -32 15t-14 33q0 24 18 64t18 66q0 34 -54 84t-54 94zM378 1336q0 42 54 83t100 41q54 0 93 -61t39 -123v-16q-4 -100 -46 -191t-118 -91q-18 0 -35 17t-17 33 q0 22 20 64t20 68q0 32 -55 82t-55 94z" />
<glyph unicode="&#x201e;" horiz-adv-x="716" d="M64 412q0 44 54 83t100 39q56 0 93 -60t37 -124v-14q-4 -100 -45 -190t-119 -90q-18 0 -34 16t-16 32q0 22 19 64t19 68q0 32 -54 82t-54 94zM386 378q0 42 53 82t99 40q56 0 94 -60t38 -124v-14q-2 -62 -18 -122t-54 -109t-92 -49q-20 0 -35 15t-15 33q0 24 19 64t19 66 q0 34 -54 84t-54 94z" />
<glyph unicode="&#x2022;" horiz-adv-x="670" d="M64 666q0 138 73 210t181 72q122 0 216 -87t94 -231v-8q0 -94 -79 -206t-177 -112q-146 0 -227 102t-81 260z" />
<glyph unicode="&#x2026;" horiz-adv-x="1060" d="M92 170v8q4 52 32 82t74 30q26 0 40 -4q48 -12 77 -56t29 -98q0 -56 -33 -94t-97 -38q-52 0 -87 55t-35 115zM438 170v8q4 52 32 82t74 30q26 0 40 -4q48 -12 77 -56t29 -98q0 -56 -33 -94t-97 -38q-52 0 -87 55t-35 115zM784 170v8q4 52 32 82t74 30q26 0 40 -4 q48 -12 77 -56t29 -98q0 -56 -33 -94t-97 -38q-52 0 -87 55t-35 115z" />
<glyph unicode="&#x202f;" horiz-adv-x="373" />
<glyph unicode="&#x2039;" horiz-adv-x="622" d="M72 648q0 62 44 142t127 186t97 126q68 102 170 102q40 0 64 -18q32 -24 32 -62q0 -22 -8 -48t-27 -58t-30 -49t-37 -53l-26 -36q-30 -42 -89 -119t-77 -103q-26 -36 -26 -42q0 -18 26 -44q30 -32 94 -110t114 -122q22 -16 50 -52t28 -58q0 -26 -26 -47t-50 -21 q-36 0 -78 29t-54 43t-50 58q-34 42 -75 89t-90 102t-77 87q-26 32 -26 78z" />
<glyph unicode="&#x203a;" horiz-adv-x="622" d="M72 1124q0 40 30 62q24 18 64 18q102 0 170 -102q14 -22 97 -127t128 -185t45 -142q0 -44 -28 -78q-204 -234 -240 -278q-82 -94 -130 -116q-28 -14 -54 -14q-24 0 -50 21t-26 47q0 22 28 58t50 52q50 44 114 122t94 110q26 26 26 44q0 6 -26 42q-18 26 -77 103t-89 119 q-2 2 -22 30t-28 41t-26 41t-26 47t-16 43t-8 42z" />
<glyph unicode="&#x205f;" horiz-adv-x="466" />
<glyph unicode="&#x20ac;" horiz-adv-x="796" d="M-48 602v2q0 62 92 70q0 10 1 28t1 28q-48 6 -71 26t-23 64v2q0 68 104 72q10 94 27 170t49 149t77 122t114 79t155 30q116 0 200 -88t88 -210v-6q0 -68 -32 -94t-100 -28q-96 0 -96 58q0 66 -25 97t-53 31q-154 0 -186 -316q18 0 64 -1t74 -1q84 0 115 -13t31 -55 q0 -94 -204 -94q-62 0 -90 2v-42v-16q4 0 28 -1t48 -1q84 0 116 -13t32 -55q0 -54 -40 -73t-112 -19q-12 0 -34 1t-32 1q24 -282 140 -282h2q44 0 86 26t42 66q0 136 116 136q52 0 78 -44t26 -108q0 -142 -105 -227t-243 -85q-338 0 -366 522q-50 6 -72 26t-22 64z" />
<glyph unicode="&#x2122;" horiz-adv-x="1616" d="M46 1356q0 96 154 96q86 0 194 -1t194 -1q46 0 81 -30t35 -64q0 -28 -12 -47t-38 -30t-47 -16t-60 -11t-55 -10q-6 0 -6 -462v-36q0 -48 -16 -98t-52 -50q-50 0 -80 20t-43 65t-16 83t-3 106q0 46 5 186t5 178q-12 24 -53 35t-81 14t-73 20t-33 53zM730 790q0 86 10 228 t10 220q0 92 33 139t129 47q22 0 48 -26t52 -72t45 -83t41 -87t26 -58q6 -8 12 -8q14 0 34 31t37 67t21 40q8 24 22 55t37 76t54 74t61 29q16 0 34 -12q56 -36 98 -238t42 -422q0 -208 -84 -208q-150 0 -150 438v80v4q-26 0 -43 -43t-26 -95t-39 -95t-78 -43q-46 0 -85 40 t-61 88t-44 88t-40 40q-24 -4 -24 -122q0 -28 1 -62t3 -62t5 -53t5 -41v-14q0 -120 -66 -120q-120 0 -120 180z" />
<glyph unicode="&#x25fc;" horiz-adv-x="1450" d="M0 0v1450h1450v-1450h-1450z" />
<glyph unicode="&#xfb01;" horiz-adv-x="956" d="M66 1208q0 140 14 166q22 50 63 63t119 13h14q74 0 112 -3t90 -3q50 0 79 -34t29 -80q0 -44 -34 -71t-62 -27h-50h-24q-46 0 -92 -2q-16 0 -29 -23t-13 -57l6 -354q2 -10 3 -30t2 -27t9 -15t22 -8h6h32q12 0 76 -4q106 -8 106 -108q0 -36 -34 -67t-92 -31h-20h-6 q-94 0 -96 -38v-20v-32q0 -4 -1 -47t-2 -104t-1 -109v-60q0 -50 -16 -73t-68 -23q-92 0 -115 32t-23 114v40v52q0 44 5 160t5 168q0 48 -1 105t-3 128t-2 111q0 24 -3 81t-4 112t-1 105zM668 276q0 76 8 247t8 249q0 352 86 352q36 0 62 -19t39 -47t20 -77t9 -89t2 -104 q0 -116 -2 -323t-2 -303q0 -46 -2 -68t-11 -49t-31 -38t-60 -11h-14q-10 0 -20 6q-92 48 -92 274zM678 1346q0 70 25 108t65 38q30 0 58 -22q80 -62 80 -176q0 -56 -28 -86t-68 -30q-52 0 -92 45t-40 123z" />
<glyph unicode="&#xfb02;" horiz-adv-x="1306" d="M66 1208q0 140 14 166q22 50 63 63t119 13h14q74 0 112 -3t90 -3q50 0 79 -34t29 -80q0 -44 -34 -71t-62 -27h-50h-24q-46 0 -92 -2q-16 0 -29 -23t-13 -57l6 -354q2 -10 3 -30t2 -27t9 -15t22 -8h6h32q12 0 76 -4q106 -8 106 -108q0 -36 -34 -67t-92 -31h-20h-6 q-94 0 -96 -38v-20v-32q0 -4 -1 -47t-2 -104t-1 -109v-60q0 -50 -16 -73t-68 -23q-92 0 -115 32t-23 114v40v52q0 44 5 160t5 168q0 48 -1 105t-3 128t-2 111q0 24 -3 81t-4 112t-1 105zM676 294v182q0 72 4 213t4 213q0 24 -1 77t-1 83q0 80 5 137t19 118t46 94t80 33 q86 0 86 -408q0 -46 -1 -112t-1 -78q0 -84 -5 -272t-5 -278q0 -12 8 -25t20 -13q22 0 36 1t32 1q168 0 220 -32q32 -20 44 -38t12 -52q0 -70 -44 -109t-122 -39h-46q-36 0 -80 -5t-78 -5q-106 0 -164 38t-64 144q-4 88 -4 132z" />
</font>
</defs>
</svg>
