<?xml version="1.0" standalone="no"?>
<!DOCTYPE svg PUBLIC "-//W3C//DTD SVG 1.1//EN" "http://www.w3.org/Graphics/SVG/1.1/DTD/svg11.dtd" >
<svg>
<metadata>
Created by FontForge 20110222 at Fri Nov 21 16:31:32 2014
 By deploy user
Copyright (c) 2013, Natanael Gama (www.ndiscovered.com . info(at)ndiscovered.com), with Reserved Font Name Exo. This Font Software is licensed under the SIL Open Font License, Version 1.1.
</metadata>
<defs>
<font id="Exo2.0-SemiBold" horiz-adv-x="568" >
  <font-face 
    font-family="Exo 2.0 Semi Bold"
    font-weight="600"
    font-stretch="normal"
    units-per-em="1000"
    panose-1="0 0 7 0 0 0 0 0 0 0"
    ascent="800"
    descent="-200"
    x-height="490"
    cap-height="690"
    bbox="-175 -285 1241 944"
    underline-thickness="50"
    underline-position="-50"
    unicode-range="U+0020-FB02"
  />
<missing-glyph horiz-adv-x="600" 
 />
    <glyph glyph-name="fi" unicode="fi" horiz-adv-x="641" 
d="M569 490v-490h-121v402h-215v-402h-122v402h-87v83l87 5v68q0 79 36 120t117 41q75 0 124 -9v-86h-81q-42 0 -58 -18t-16 -63v-53h336zM480 704h56q35 0 35 -35v-54q0 -35 -35 -35h-56q-35 0 -35 35v54q0 35 35 35z" />
    <glyph glyph-name="fl" unicode="fl" horiz-adv-x="699" 
d="M678 84l14 -78q-36 -17 -104 -17q-61 0 -96 32.5t-35 89.5v514h-152q-41 1 -57 -17.5t-16 -64.5v-53h132v-88h-132v-402h-122v402h-87v83l87 5v68q0 79 35.5 120.5t116.5 40.5q229 0 317 -16v-563q0 -56 57 -56h42z" />
    <glyph glyph-name="f_f" unicode="ff" horiz-adv-x="740" 
d="M747 624h-96q-41 0 -57.5 -15.5t-16.5 -53.5v-65h144v-88h-144v-402h-121v402h-224v-402h-121v402h-87v83l87 5v71q0 70 38 109t114 39q84 0 130 -9l-11 -86h-76q-42 0 -58 -14t-16 -55v-55h224v81q0 72 36 110t117 38q95 0 149 -9z" />
    <glyph glyph-name="f_f_i" unicode="ffi" horiz-adv-x="976" 
d="M905 490v-490h-121v402h-216v-402h-120v402h-225v-402h-121v402h-78v83l78 5v71q1 70 39 109t114 39q84 0 129 -9l-10 -86h-77q-42 0 -58 -14t-16 -55v-55h225v68q0 79 35.5 120t116.5 41q75 0 123 -9v-86h-80q-42 0 -58.5 -18t-16.5 -63v-53h337zM816 704h56
q35 0 35 -35v-54q0 -35 -35 -35h-56q-35 0 -35 35v54q0 35 35 35z" />
    <glyph glyph-name="f_f_l" unicode="ffl" horiz-adv-x="1046" 
d="M1024 84l14 -78q-34 -17 -104 -17q-61 0 -96 32.5t-35 89.5v514h-152q-41 1 -57.5 -17.5t-16.5 -64.5v-53h133v-88h-133v-402h-121v402h-224v-402h-121v402h-87v83l87 5v71q0 70 38 109t114 39q84 0 130 -9l-11 -86h-76q-42 0 -58 -14t-16 -55v-55h224v68q0 79 36 120.5
t117 40.5q229 0 316 -16v-563q0 -56 58 -56h41z" />
    <glyph glyph-name=".notdef" horiz-adv-x="600" 
 />
    <glyph glyph-name=".null" horiz-adv-x="0" 
 />
    <glyph glyph-name="nonmarkingreturn" horiz-adv-x="333" 
 />
    <glyph glyph-name="space" unicode=" " horiz-adv-x="220" 
 />
    <glyph glyph-name="exclam" unicode="!" horiz-adv-x="287" 
d="M204 410l-13 -194h-95l-13 194v285h121v-285zM130 137h29q24 0 33.5 -9.5t9.5 -33.5v-51q0 -24 -9.5 -33.5t-33.5 -9.5h-29q-25 0 -34.5 9.5t-9.5 33.5v51q0 24 9.5 33.5t34.5 9.5z" />
    <glyph glyph-name="quotedbl" unicode="&#x22;" horiz-adv-x="367" 
d="M146 472h-79l-7 218h94zM300 472h-78l-8 218h94z" />
    <glyph glyph-name="numbersign" unicode="#" horiz-adv-x="698" 
d="M537 435l-28 -157h110l-15 -74h-107l-36 -204h-93l35 204h-157l-36 -204h-93l35 204h-116l14 74h115l27 157h-114l14 75h113l32 180h93l-31 -180h157l32 180h93l-31 -180h111l-15 -75h-109zM443 435h-157l-28 -157h158z" />
    <glyph glyph-name="dollar" unicode="$" horiz-adv-x="570" 
d="M326 400l59 -18q78 -25 109.5 -73.5t31.5 -127.5q0 -114 -53.5 -153.5t-190.5 -39.5h-2l-9 -110h-55l10 111q-80 4 -168 21l8 95l170 -3l17 195l-64 20q-75 24 -107 72.5t-32 127.5q0 113 52 149t184 36h12l8 94h54l-8 -95q86 -5 150 -22l-8 -89q-129 3 -152 3zM272 417
l16 177q-68 -1 -90.5 -14t-22.5 -65q0 -43 17 -60.5t61 -31.5zM305 280l-15 -179q66 1 88 16.5t22 64.5q0 44 -15.5 61t-57.5 30z" />
    <glyph glyph-name="percent" unicode="%" horiz-adv-x="901" 
d="M206 703q93 0 130 -46t37 -159q0 -112 -37.5 -158.5t-129.5 -46.5t-129.5 46.5t-37.5 158.5q0 113 37 159t130 46zM276 0h-81l428 690h80zM205 631q-44 0 -59.5 -28t-15.5 -105q0 -78 15.5 -105.5t59.5 -27.5t60.5 27.5t16.5 105.5q0 77 -16.5 105t-60.5 28zM694 400
q92 0 129.5 -46.5t37.5 -158.5q0 -114 -37 -160t-130 -46q-92 0 -129 46t-37 160q0 112 37 158.5t129 46.5zM694 327q-45 0 -60.5 -27t-14.5 -105q-1 -78 15 -106t60 -28t60 28t16 106t-16 105t-60 27z" />
    <glyph glyph-name="ampersand" unicode="&#x26;" horiz-adv-x="767" 
d="M713 92l13 -86q-49 -17 -118 -17q-100 0 -124 78q-42 -42 -92.5 -60t-128.5 -18q-111 0 -158 41.5t-47 144.5q0 83 31.5 129t104.5 52v4q-62 6 -88.5 45t-26.5 116q0 60 13.5 95.5t49 54.5t80 24.5t121.5 5.5q95 0 161 -11l-15 -91q-47 3 -150 3q-80 0 -106.5 -18.5
t-26.5 -81.5q0 -59 23 -79.5t86 -20.5h166l9 114h102v-114h115v-91h-115v-162q0 -32 11.5 -44.5t42.5 -12.5h67zM478 311h-170q-67 0 -92.5 -24t-25.5 -89q0 -61 22.5 -82.5t84.5 -21.5q111 2 181 58v159z" />
    <glyph glyph-name="quotesingle" unicode="'" horiz-adv-x="213" 
d="M146 472h-79l-7 218h94z" />
    <glyph glyph-name="parenleft" unicode="(" horiz-adv-x="362" 
d="M324 790l14 -54q-92 -43 -133.5 -148.5t-41.5 -274.5q0 -336 175 -424l-14 -54q-144 50 -211.5 166t-67.5 311q0 197 67.5 313t211.5 165z" />
    <glyph glyph-name="parenright" unicode=")" horiz-adv-x="362" 
d="M24 736l15 54q144 -49 211.5 -165t67.5 -313q0 -195 -67.5 -311t-211.5 -166l-15 54q175 88 175 424q0 169 -41.5 274.5t-133.5 148.5z" />
    <glyph glyph-name="asterisk" unicode="*" horiz-adv-x="450" 
d="M249 527l104 -129l-55 -41l-73 122l-73 -121l-56 40l104 128l-10 165h70zM406 541l-123 -30l-16 19v30l117 47zM182 560v-30l-14 -19l-124 31l22 65z" />
    <glyph glyph-name="plus" unicode="+" horiz-adv-x="546" 
d="M497 255h-179v-171h-91v171h-178v90h178v171h91v-171h179v-90z" />
    <glyph glyph-name="comma" unicode="," horiz-adv-x="238" 
d="M103 137h33q24 0 33 -9.5t9 -33.5v-64q-1 -94 -44 -170l-55 15q13 61 13 125q-34 0 -34 38v56q1 24 11.5 33.5t33.5 9.5z" />
    <glyph glyph-name="hyphen" unicode="-" horiz-adv-x="428" 
d="M364 211h-300v86h300v-86z" />
    <glyph glyph-name="period" unicode="." horiz-adv-x="240" 
d="M102 137h36q25 0 34.5 -9.5t9.5 -33.5v-51q0 -24 -9.5 -33.5t-34.5 -9.5h-36q-25 0 -34.5 9.5t-9.5 33.5v51q0 24 9.5 33.5t34.5 9.5z" />
    <glyph glyph-name="slash" unicode="/" horiz-adv-x="534" 
d="M119 -69h-97l393 759h97z" />
    <glyph glyph-name="zero" unicode="0" horiz-adv-x="617" 
d="M308 703q140 0 196.5 -81.5t56.5 -276.5t-56.5 -276.5t-196.5 -81.5t-196 81.5t-56 276.5t56 276.5t196 81.5zM307 598q-74 0 -101.5 -54t-27.5 -199t27.5 -199t101.5 -54q76 0 104 54t28 199t-28 199t-104 54z" />
    <glyph glyph-name="one" unicode="1" horiz-adv-x="414" 
d="M312 0h-125v509q0 39 5 68l-162 -46l-15 89l172 70h125v-690z" />
    <glyph glyph-name="two" unicode="2" horiz-adv-x="569" 
d="M62 581l-7 96q114 25 222 25q112 0 166.5 -32.5t54.5 -123.5q0 -63 -24 -113.5t-91 -123.5l-183 -197q41 6 107 6h213v-118h-470v75q0 33 18 52l180 199q125 133 124 210q-1 36 -25.5 46.5t-82.5 10.5q-96 0 -202 -12z" />
    <glyph glyph-name="three" unicode="3" horiz-adv-x="561" 
d="M65 590l-6 95q107 18 206 18q118 0 168.5 -35t50.5 -125q0 -75 -22.5 -119t-78.5 -55v-4q65 -11 91 -53t28 -120q2 -108 -50 -156.5t-177 -48.5q-98 0 -229 18l6 98q120 -8 190 -8q77 0 106.5 24t29.5 88q0 57 -24 82.5t-93 24.5h-128v93h128q65 0 84.5 26t19.5 79
q-1 54 -24.5 69t-95.5 15q-108 0 -180 -6z" />
    <glyph glyph-name="four" unicode="4" horiz-adv-x="627" 
d="M590 253v-84l-87 -13h-2v-156h-118v156h-271q-46 0 -68.5 37t-4.5 79l184 418h121l-175 -401q-16 -36 22 -36h192v192l21 112h97v-304h89z" />
    <glyph glyph-name="five" unicode="5" horiz-adv-x="544" 
d="M471 587h-284l-8 -147l87 -10q126 -12 178 -64.5t51 -156.5q0 -46 -10 -82.5t-34 -69.5t-71.5 -51t-115.5 -18q-99 0 -220 23l13 101q95 -15 176 -15t109 25.5t30 87.5q1 26 -2 44.5t-14.5 31.5t-22.5 20.5t-38 13t-48.5 8t-65.5 6.5l-66 7q-20 1 -32.5 15.5t-10.5 34.5
l16 299h387z" />
    <glyph glyph-name="six" unicode="6" horiz-adv-x="579" 
d="M488 685l-8 -87q-48 2 -144 2q-58 0 -88 -14t-47 -58.5t-20 -131.5q32 32 68.5 45t90.5 13q109 0 151 -50t42 -173q0 -60 -9 -101.5t-33 -75t-70.5 -50t-117.5 -16.5q-149 0 -197 70.5t-48 278.5q0 94 11.5 159.5t32 105.5t57 62.5t77 30t100.5 7.5q91 0 152 -17zM304 90
q69 0 89.5 31.5t20.5 108.5q0 72 -22.5 99.5t-86.5 27.5q-63 0 -125 -46q0 -138 21 -179.5t103 -41.5z" />
    <glyph glyph-name="seven" unicode="7" horiz-adv-x="519" 
d="M32 690h402q35 0 50 -20.5t5 -51.5l-211 -618h-124l182 526q10 34 26 59h-324z" />
    <glyph glyph-name="eight" unicode="8" horiz-adv-x="610" 
d="M175 356v4q-51 6 -75 48.5t-24 109.5q0 99 48 141t181 42q134 0 182 -41.5t48 -141.5q0 -67 -24.5 -109.5t-75.5 -48.5v-4q64 -6 90 -53.5t26 -130.5q0 -99 -51 -141t-195 -43q-141 -1 -193 42t-52 142q0 83 25.5 130.5t89.5 53.5zM306 606q-70 0 -93.5 -21t-23.5 -80
q0 -60 23.5 -80t94.5 -20t92.5 20t21.5 80q0 59 -22.5 80t-92.5 21zM307 311q-78 -1 -103.5 -23.5t-25.5 -88.5q0 -63 25.5 -85.5t102.5 -22.5q76 0 101 22.5t25 85.5q0 67 -24.5 89.5t-100.5 22.5z" />
    <glyph glyph-name="nine" unicode="9" horiz-adv-x="579" 
d="M78 5l9 88q52 -3 155 -3q86 0 119 42.5t38 164.5q-33 -34 -70 -47.5t-92 -13.5q-189 0 -189 223q-1 127 52 185t180 58q63 0 104.5 -11t69 -33.5t41.5 -66t19.5 -98t5.5 -140.5q0 -115 -14.5 -186.5t-50 -111t-84 -53.5t-128.5 -14q-97 0 -165 17zM273 332
q35 0 62.5 10.5t64.5 37.5q0 59 -2.5 91t-8.5 61t-20 41.5t-35 19.5t-55 7q-69 0 -91.5 -32.5t-21.5 -107.5q-1 -67 22.5 -97.5t84.5 -30.5z" />
    <glyph glyph-name="colon" unicode=":" horiz-adv-x="251" 
d="M103 446h36q25 0 34.5 -9.5t9.5 -33.5v-51q0 -24 -9.5 -33.5t-34.5 -9.5h-36q-25 0 -34.5 9.5t-9.5 33.5v51q0 24 9.5 33.5t34.5 9.5zM103 137h36q25 0 34.5 -9t9.5 -34v-50q0 -25 -9.5 -34.5t-34.5 -9.5h-36q-25 0 -34.5 9.5t-9.5 34.5v50q0 25 9.5 34t34.5 9z" />
    <glyph glyph-name="semicolon" unicode=";" horiz-adv-x="252" 
d="M109 446h37q24 0 33.5 -9.5t9.5 -33.5v-51q0 -24 -9.5 -33.5t-33.5 -9.5h-37q-24 0 -33.5 9.5t-9.5 33.5v51q0 24 9.5 33.5t33.5 9.5zM111 137h32q24 0 33.5 -9.5t9.5 -33.5v-64q-1 -92 -45 -170l-54 15q12 54 13 125q-34 0 -34 38v56q2 24 11.5 33.5t33.5 9.5z" />
    <glyph glyph-name="less" unicode="&#x3c;" horiz-adv-x="523" 
d="M460 420l-311 -120l311 -120v-95l-414 167v95l414 169v-96z" />
    <glyph glyph-name="equal" unicode="=" horiz-adv-x="582" 
d="M516 357h-450v88h450v-88zM516 145h-450v88h450v-88z" />
    <glyph glyph-name="greater" unicode="&#x3e;" horiz-adv-x="523" 
d="M477 347v-95l-414 -167v95l311 120l-311 120v96z" />
    <glyph glyph-name="question" unicode="?" horiz-adv-x="508" 
d="M39 604l-5 85q9 2 33 6.5t32.5 5.5t30 4t37.5 4t42 2t56 1q105 0 156.5 -38t51.5 -117q0 -41 -17.5 -75.5t-43 -60.5t-51 -53t-45 -66t-22.5 -86h-101q-1 50 13.5 92.5t36.5 71t44.5 53.5t39.5 50.5t18 50.5q2 40 -23.5 58.5t-83.5 18.5q-80 0 -199 -7zM229 137h29
q25 0 34.5 -9.5t9.5 -33.5v-51q0 -24 -9.5 -33.5t-34.5 -9.5h-29q-25 0 -34.5 9.5t-9.5 33.5v51q0 24 9.5 33.5t34.5 9.5z" />
    <glyph glyph-name="at" unicode="@" horiz-adv-x="737" 
d="M363 594h147q81 0 122 -36t41 -120v-304h-90l-11 71q-30 -32 -79 -56.5t-104 -24.5q-61 0 -98.5 32.5t-37.5 92.5v49q0 50 30.5 78.5t88.5 28.5h187v30q0 37 -15.5 50t-57.5 13h-123q-48 0 -71.5 -1t-48.5 -9.5t-34.5 -21t-18.5 -41t-10.5 -63.5t-1.5 -95q0 -37 0.5 -63
t4 -50t5.5 -39.5t11.5 -29.5t15 -22t22.5 -14.5t28 -9t37 -4.5t44.5 -2h55.5h270v-86q-140 -11 -270 -11q-81 -1 -131 2.5t-91 18t-61.5 34t-34 61t-17 89t-3.5 126.5q0 78 3 124.5t15 87t30 60t54.5 34t80.5 18t116 3.5zM559 337l-142 -4q-30 -1 -41.5 -11.5t-11.5 -35.5
v-16q0 -55 53 -55q36 0 75.5 14t66.5 40v68z" />
    <glyph glyph-name="A" unicode="A" horiz-adv-x="636" 
d="M446 195h-256l-57 -195h-128l207 657q9 33 45 33h122q36 0 45 -33l207 -657h-128zM416 298l-69 238q-14 54 -15 59h-27l-16 -59l-69 -238h196z" />
    <glyph glyph-name="B" unicode="B" horiz-adv-x="628" 
d="M439 360v-4q75 -7 107 -52.5t32 -131.5q0 -104 -51 -142t-175 -38q-180 0 -275 8v690q85 8 244 8q133 0 184.5 -37.5t51.5 -142.5q0 -75 -28 -113.5t-90 -44.5zM200 403h125q64 0 88 20.5t24 78.5q0 57 -26 76t-96 19h-115v-194zM200 94l131 -1q71 0 96.5 20.5t25.5 81.5
q0 68 -27 92t-99 25h-127v-218z" />
    <glyph glyph-name="C" unicode="C" horiz-adv-x="578" 
d="M535 108l11 -94q-83 -26 -212 -26q-155 0 -218 80t-63 277t63 277t218 80q116 0 198 -22l-12 -95q-87 7 -186 7q-86 0 -117.5 -52.5t-31.5 -194.5t31.5 -194.5t117.5 -52.5q127 0 201 10z" />
    <glyph glyph-name="D" unicode="D" horiz-adv-x="671" 
d="M77 0v690q137 9 258 9q157 0 219.5 -77t62.5 -277t-62.5 -277t-219.5 -77q-121 0 -258 9zM202 594v-496q78 -2 133 -2q86 0 118 53.5t32 195.5q0 143 -32.5 196.5t-117.5 53.5q-27 0 -70.5 -0.5t-62.5 -0.5z" />
    <glyph glyph-name="E" unicode="E" 
d="M517 101l6 -95q-91 -8 -304 -8q-68 0 -107.5 35t-40.5 96v432q1 61 40.5 96t107.5 35q213 0 304 -8l-6 -96h-270q-27 0 -38.5 -13t-11.5 -45v-121h283v-96h-283v-154q0 -32 11.5 -45t38.5 -13h270z" />
    <glyph glyph-name="F" unicode="F" horiz-adv-x="546" 
d="M510 588h-250q-33 0 -46 -13t-13 -45v-133h272v-97h-272v-300h-126v556q0 64 40 100t108 36q206 0 294 -9z" />
    <glyph glyph-name="G" unicode="G" horiz-adv-x="635" 
d="M576 398v-398h-93l-11 68q-86 -81 -202 -81q-114 0 -165 86.5t-51 274.5q0 204 66 279.5t236 75.5q115 0 198 -23l-10 -93q-98 6 -182 6q-54 0 -84 -7.5t-53 -34t-31.5 -76t-8.5 -134.5q0 -139 27 -192.5t97 -53.5q67 0 145 48v255h122z" />
    <glyph glyph-name="H" unicode="H" horiz-adv-x="678" 
d="M600 690v-690h-125v316h-273v-316h-125v690h125v-271h273v271h125z" />
    <glyph glyph-name="I" unicode="I" horiz-adv-x="279" 
d="M202 0h-125v690h125v-690z" />
    <glyph glyph-name="J" unicode="J" horiz-adv-x="354" 
d="M279 690v-538q0 -79 -37.5 -121t-106.5 -42q-67 0 -110 17l13 87h47q70 0 70 62v535h124z" />
    <glyph glyph-name="K" unicode="K" horiz-adv-x="612" 
d="M263 311h-68q7 -32 7 -68v-243h-125v690h125v-203q0 -44 -7 -80h68l189 283h136l-186 -278q-17 -27 -46 -52v-3q35 -29 54 -59l191 -298h-140z" />
    <glyph glyph-name="L" unicode="L" horiz-adv-x="521" 
d="M200 690v-529q0 -32 13 -44.5t46 -12.5h240l5 -97q-98 -9 -274 -9q-155 0 -155 143v549h125z" />
    <glyph glyph-name="M" unicode="M" horiz-adv-x="894" 
d="M625 690h129q47 0 49 -49l28 -641h-123l-23 589h-19l-119 -459q-11 -42 -52 -42h-96q-42 0 -53 42l-121 459h-17l-22 -589h-122l26 641q2 49 49 49h130q41 0 51 -42l98 -374q2 -7 21 -94h15q11 58 21 95l98 373q11 42 52 42z" />
    <glyph glyph-name="N" unicode="N" horiz-adv-x="715" 
d="M638 690v-644q0 -46 -46 -46h-99q-36 0 -52 38l-194 423q-35 75 -41 103h-12q6 -42 6 -104v-460h-123v644q0 46 47 46h97q20 0 31.5 -9t20.5 -29l188 -411q3 -7 21 -47t27 -62h12q-5 63 -5 112v446h122z" />
    <glyph glyph-name="O" unicode="O" horiz-adv-x="675" 
d="M337 703q160 0 222.5 -77t62.5 -281t-62.5 -281t-222.5 -77q-159 0 -221.5 77t-62.5 281t62.5 281t221.5 77zM337 596q-87 0 -119.5 -53.5t-32.5 -197.5t32.5 -197.5t119.5 -53.5q88 0 120.5 53.5t32.5 197.5t-32.5 197.5t-120.5 53.5z" />
    <glyph glyph-name="P" unicode="P" horiz-adv-x="601" 
d="M77 0v690q89 9 250 9q136 0 186.5 -46.5t50.5 -175.5t-48 -175.5t-173 -46.5q-74 0 -141 8v-263h-125zM202 357h122q66 1 90 25.5t24 94.5t-24 94.5t-90 24.5h-122v-239z" />
    <glyph glyph-name="Q" unicode="Q" horiz-adv-x="677" 
d="M338 703q159 0 222 -77.5t63 -280.5t-63 -280.5t-222 -77.5t-221.5 77t-62.5 281t62.5 281t221.5 77zM338 596q-87 0 -120 -53.5t-33 -197.5t33 -197.5t120 -53.5q88 0 120.5 53.5t32.5 197.5t-32.5 197.5t-120.5 53.5zM261 -111l31 73q125 -44 288 -66l-39 -120
q-133 32 -280 113z" />
    <glyph glyph-name="R" unicode="R" horiz-adv-x="629" 
d="M593 0h-133l-55 214q-19 62 -80 62l-124 1v-277h-124v690q89 9 251 9q131 0 185.5 -43.5t54.5 -158.5q0 -80 -30 -122.5t-99 -51.5v-5q30 -7 56 -32t36 -70zM201 379h124q67 1 91.5 24t24.5 86t-24.5 85t-91.5 22h-124v-217z" />
    <glyph glyph-name="S" unicode="S" horiz-adv-x="570" 
d="M326 273l-139 44q-75 24 -107 72.5t-32 127.5q0 113 52.5 149t184.5 36q127 0 217 -23l-8 -89q-114 4 -205 4q-69 0 -92 -13.5t-23 -65.5q0 -43 16.5 -60.5t60.5 -31.5l133 -41q79 -25 110.5 -73.5t31.5 -127.5q0 -114 -54 -153.5t-191 -39.5q-114 0 -224 22l8 92
q175 -4 219 -4q69 0 92 16t23 68q0 44 -15.5 61t-57.5 30z" />
    <glyph glyph-name="T" unicode="T" horiz-adv-x="592" 
d="M571 583h-213v-583h-126v583h-211v107h550v-107z" />
    <glyph glyph-name="U" unicode="U" horiz-adv-x="671" 
d="M599 690v-420q0 -155 -58 -219t-200 -64q-148 0 -208.5 64t-60.5 219v420h125v-420q0 -99 30.5 -137.5t108.5 -38.5q77 0 107 38.5t30 137.5v420h126z" />
    <glyph glyph-name="V" unicode="V" horiz-adv-x="622" 
d="M611 690l-195 -655q-10 -35 -46 -35h-118q-16 0 -28.5 9.5t-16.5 25.5l-196 655h129l141 -518q3 -12 9 -38l9 -39h25q6 32 19 77l139 518h129z" />
    <glyph glyph-name="W" unicode="W" horiz-adv-x="961" 
d="M932 690l-119 -655q-4 -16 -16.5 -25.5t-29.5 -9.5h-131q-39 0 -46 36l-87 481q-5 27 -13 81h-20q-9 -58 -13 -81l-86 -481q-3 -16 -16 -26t-31 -10h-130q-17 0 -30 9.5t-16 25.5l-119 655h130l82 -503q6 -34 11 -94h21q9 58 16 94l85 463q7 40 46 40h122q17 0 29.5 -11
t15.5 -29l85 -464q10 -50 14 -93h22q2 14 5.5 45.5t5.5 46.5l83 505h130z" />
    <glyph glyph-name="X" unicode="X" horiz-adv-x="626" 
d="M322 312h-19l-154 -312h-132l183 355l-170 335h131l141 -288h21l141 288h132l-171 -335l184 -355h-133z" />
    <glyph glyph-name="Y" unicode="Y" horiz-adv-x="589" 
d="M357 233v-233h-125v235l-227 455h132l126 -268q7 -16 28 -83h8q21 67 28 83l126 268h130z" />
    <glyph glyph-name="Z" unicode="Z" horiz-adv-x="574" 
d="M530 102v-102h-485v102l340 486h-334v102h472v-102l-340 -486h347z" />
    <glyph glyph-name="bracketleft" unicode="[" horiz-adv-x="339" 
d="M303 691h-90q-17 0 -17 -18v-743q0 -18 17 -18h90v-77h-153q-67 0 -67 67v799q0 29 19 48t48 19h153v-77z" />
    <glyph glyph-name="backslash" unicode="\" horiz-adv-x="535" 
d="M513 -69h-98l-393 759h98z" />
    <glyph glyph-name="bracketright" unicode="]" horiz-adv-x="339" 
d="M36 768h152q30 0 49 -19t19 -48v-799q0 -29 -19 -48t-49 -19h-152v77h89q17 0 17 18v743q0 18 -17 18h-89v77z" />
    <glyph glyph-name="asciicircum" unicode="^" horiz-adv-x="447" 
d="M417 397l-48 -28l-141 169h-8l-142 -169l-48 28l150 219h88z" />
    <glyph glyph-name="underscore" unicode="_" 
d="M505 -86h-442v86h442v-86z" />
    <glyph glyph-name="grave" unicode="`" horiz-adv-x="337" 
d="M274 584l-38 -54l-212 112l62 89z" />
    <glyph glyph-name="a" unicode="a" horiz-adv-x="558" 
d="M77 394l-12 86q129 24 245 24q95 0 139.5 -38t44.5 -133v-333h-96l-13 75q-77 -86 -187 -86q-69 0 -112 37.5t-43 104.5v50q0 59 38 91t107 32h184v30q-1 42 -19 56t-71 14q-77 0 -205 -10zM164 166v-19q0 -60 64 -60q73 0 144 58v76h-156q-29 -1 -40.5 -15t-11.5 -40z
" />
    <glyph glyph-name="b" unicode="b" horiz-adv-x="581" 
d="M188 700v-165q0 -71 -12 -114q78 83 180 83q93 0 136 -60t43 -196q0 -128 -50.5 -194t-179.5 -66q-57 0 -126 9.5t-113 27.5v675h122zM188 347v-250q58 -14 114 -12q59 1 83 36t25 127q-1 90 -20 122t-80 32q-30 0 -56 -13t-66 -42z" />
    <glyph glyph-name="c" unicode="c" horiz-adv-x="498" 
d="M454 98l11 -80q-73 -30 -180 -30q-131 0 -185 58t-54 200t54.5 200t185.5 58q103 0 171 -28l-14 -76q-49 2 -136 2q-76 0 -105 -33t-29 -123q0 -91 29 -124.5t105 -33.5q79 0 147 10z" />
    <glyph glyph-name="d" unicode="d" horiz-adv-x="583" 
d="M515 700v-700h-96l-10 67q-85 -79 -190 -79q-90 0 -131 65.5t-41 194.5q0 141 45.5 198.5t142.5 57.5q94 0 163 -43q-5 40 -5 98v141h122zM393 142v243q-80 20 -122 20q-57 0 -78 -30.5t-21 -125.5q0 -93 20.5 -125.5t71.5 -32.5q34 0 59 10.5t70 40.5z" />
    <glyph glyph-name="e" unicode="e" horiz-adv-x="548" 
d="M375 194h-200q7 -64 36 -85.5t95 -21.5q75 0 176 12l11 -78q-69 -33 -202 -33t-189 59t-56 199q0 143 55 200.5t182 57.5q117 0 170 -42.5t53 -127.5q0 -140 -131 -140zM173 279h168q44 0 44 57q0 40 -21 56t-76 16q-64 0 -88.5 -26.5t-26.5 -102.5z" />
    <glyph glyph-name="f" unicode="f" horiz-adv-x="395" 
d="M403 624h-96q-41 0 -57.5 -15.5t-16.5 -53.5v-65h143v-88h-143v-402h-122v402h-87v83l87 5v81q0 72 36 110t117 38q96 0 149 -9z" />
    <glyph glyph-name="g" unicode="g" 
d="M545 431l-64 -7q13 -32 13 -78q0 -85 -49 -121.5t-172 -36.5q-54 0 -90 7q-12 -18 -5 -40.5t34 -25.5l179 -25q72 -10 103.5 -44t31.5 -99q0 -90 -53.5 -123.5t-193.5 -33.5q-142 0 -195 32.5t-53 117.5q0 38 18 62t59 46q-33 31 -27.5 79.5t40.5 71.5q-69 33 -69 132
q0 87 49 123t173 36q73 0 123 -14h155zM273 273q62 0 85.5 16t23.5 57t-23.5 56.5t-85.5 15.5t-86 -15.5t-24 -56.5t24 -57t86 -16zM326 19l-140 17q-38 -35 -38 -69q0 -43 24.5 -54.5t105.5 -11.5t106 12t25 53q0 30 -15 38.5t-68 14.5z" />
    <glyph glyph-name="h" unicode="h" horiz-adv-x="590" 
d="M191 700v-180q0 -54 -8 -99q109 83 207 83q65 0 100 -35t35 -101v-368h-122v331q0 41 -11 55.5t-41 14.5q-58 0 -161 -60v-341h-122v700h123z" />
    <glyph glyph-name="i" unicode="i" horiz-adv-x="265" 
d="M104 703h56q35 0 35 -35v-55q0 -35 -35 -35h-56q-35 0 -35 35v55q0 35 35 35zM193 0h-121v490h121v-490z" />
    <glyph glyph-name="j" unicode="j" horiz-adv-x="267" 
d="M106 704h56q35 0 35 -35v-54q0 -35 -35 -35h-56q-35 0 -35 35v54q0 35 35 35zM195 490v-481q0 -64 -30 -120.5t-82 -88.5l-68 53q58 69 58 156v481h122z" />
    <glyph glyph-name="k" unicode="k" horiz-adv-x="534" 
d="M238 234h-54q6 -52 6 -75v-159h-122v700h123v-298q0 -47 -7 -86h53l134 174h138l-137 -174q-16 -25 -41 -41v-2q20 -13 41 -47l153 -226h-138z" />
    <glyph glyph-name="l" unicode="l" horiz-adv-x="314" 
d="M191 700v-547q-1 -29 13.5 -43t44.5 -14h42l14 -90q-34 -17 -104 -17q-61 0 -96.5 35t-35.5 99v577h122z" />
    <glyph glyph-name="m" unicode="m" horiz-adv-x="875" 
d="M167 490l7 -72q98 86 192 86q99 0 125 -82q92 82 186 82q65 0 99 -35t34 -101v-368h-119v331q-1 38 -14 54t-47 16q-29 0 -54.5 -12t-77.5 -47v-342h-117v331q1 39 -13.5 54.5t-47.5 15.5q-28 0 -54 -12t-77 -46v-343h-121v490h99z" />
    <glyph glyph-name="n" unicode="n" horiz-adv-x="590" 
d="M170 490l8 -72q114 86 212 86q65 0 100 -35t35 -101v-368h-122v331q0 41 -11 55.5t-41 14.5q-34 0 -69.5 -14t-91.5 -46v-341h-122v490h102z" />
    <glyph glyph-name="o" unicode="o" horiz-adv-x="576" 
d="M289 504q132 0 186.5 -59t54.5 -200t-54.5 -199.5t-186.5 -58.5q-133 0 -188 58.5t-55 199.5t55 200t188 59zM289 407q-68 0 -92 -33.5t-24 -128.5q0 -94 24 -127.5t92 -33.5q66 0 90.5 33.5t24.5 127.5q0 95 -24.5 128.5t-90.5 33.5z" />
    <glyph glyph-name="p" unicode="p" horiz-adv-x="591" 
d="M168 490l8 -73q34 38 90.5 62t110.5 24q167 0 167 -262q0 -139 -45.5 -196t-142.5 -57q-99 0 -170 48q4 -51 3 -102v-129h-121v685h100zM189 342v-234q94 -21 131 -21q56 0 77.5 30.5t21.5 124.5q0 92 -19.5 126.5t-67.5 34.5q-33 0 -64.5 -14.5t-78.5 -46.5z" />
    <glyph glyph-name="q" unicode="q" horiz-adv-x="580" 
d="M514 -195h-122v151q0 64 10 106q-89 -75 -184 -75q-87 0 -129.5 62.5t-42.5 193.5t50 196t183 65q54 0 122.5 -10t112.5 -27v-662zM393 140v254q-56 15 -116 13q-61 -2 -83.5 -37t-22.5 -133q0 -79 18.5 -112.5t71.5 -33.5q34 0 63 12t69 37z" />
    <glyph glyph-name="r" unicode="r" horiz-adv-x="413" 
d="M400 504l-13 -114h-35q-52 0 -162 -44v-346h-122v490h95l11 -72q105 86 202 86h24z" />
    <glyph glyph-name="s" unicode="s" horiz-adv-x="517" 
d="M287 186l-129 35q-64 18 -89.5 51t-25.5 93q0 79 45 109t155 30q120 -2 217 -18l-9 -84q-124 4 -187 4q-66 0 -85 -6.5t-19 -35.5q0 -7 1.5 -13l2.5 -10t5.5 -7.5t6.5 -5.5t10 -5t11 -4t14 -4t16 -4l132 -36q63 -18 90 -48.5t27 -92.5q0 -86 -49 -115.5t-170 -29.5
q-110 0 -205 16l8 85q52 -4 167 -4q79 0 105.5 9t26.5 38q0 6 -1 11t-3 9t-4 7t-7 6t-8 4.5t-10.5 4t-11 3.5t-13.5 4t-14 4z" />
    <glyph glyph-name="t" unicode="t" horiz-adv-x="400" 
d="M231 402v-249q0 -32 13 -44.5t46 -12.5h67l13 -90q-53 -17 -126 -17q-64 0 -98.5 37t-34.5 106v270h-89v83l88 5v141h121v-141h144v-88h-144z" />
    <glyph glyph-name="u" unicode="u" horiz-adv-x="579" 
d="M511 490v-490h-96l-9 66q-104 -79 -205 -79q-136 0 -136 136v367h122v-331q-1 -39 12 -54t48 -15q50 0 143 54v346h121z" />
    <glyph glyph-name="v" unicode="v" horiz-adv-x="546" 
d="M535 490l-168 -461q-11 -29 -41 -29h-106q-32 0 -40 29l-168 461h128l102 -323q22 -77 24 -85h13l26 85l101 323h129z" />
    <glyph glyph-name="w" unicode="w" horiz-adv-x="834" 
d="M815 490l-129 -457q-8 -33 -43 -33h-103q-38 0 -45 38l-59 301q-2 11 -6 38t-7 42h-12l-14 -80l-57 -301q-3 -17 -16 -27.5t-30 -10.5h-101q-38 0 -44 33l-130 457h124l81 -337q10 -45 13 -78h13l15 78l60 301q7 36 43 36h99q17 0 29 -10t15 -27l58 -300q2 -15 7.5 -42.5
t7.5 -35.5h13q9 61 13 78l81 337h124z" />
    <glyph glyph-name="x" unicode="x" horiz-adv-x="546" 
d="M280 210h-14l-123 -210h-128l155 252l-143 238h127l111 -192h16l111 192h127l-143 -238l155 -252h-128z" />
    <glyph glyph-name="y" unicode="y" horiz-adv-x="546" 
d="M533 490l-182 -505q-29 -83 -89 -138t-158 -50l-10 77q58 16 92 43.5t52 71.5l5 11h-24q-33 0 -41 30l-166 460h129l107 -337q10 -31 16 -65h14q4 12 10.5 34t9.5 31l105 337h130z" />
    <glyph glyph-name="z" unicode="z" horiz-adv-x="518" 
d="M473 93v-93h-428v93l288 304h-284v93h420v-93l-288 -304h292z" />
    <glyph glyph-name="braceleft" unicode="{" horiz-adv-x="331" 
d="M292 768v-75q-48 0 -65 -15.5t-17 -56.5v-163q1 -63 -19.5 -91.5t-77.5 -38.5q58 -17 79 -44.5t22 -81.5v-221q0 -41 17 -56t65 -15v-75q-198 -21 -198 136v247q0 34 -11 44.5t-48 24.5v82q23 7 28.5 9t14.5 10t10.5 19.5t1.5 34.5v190q0 157 198 136z" />
    <glyph glyph-name="bar" unicode="|" horiz-adv-x="254" 
d="M170 -169h-86v950h86v-950z" />
    <glyph glyph-name="braceright" unicode="}" horiz-adv-x="332" 
d="M40 693v75q198 21 198 -136v-190q0 -30 5.5 -43t13.5 -17t36 -13v-82q-22 -8 -28 -11t-16 -11t-12.5 -18.5t-2.5 -28.5v-247q0 -157 -198 -136v75q48 0 65 15t17 56v221q1 54 22 81.5t79 44.5q-57 10 -77.5 38.5t-19.5 91.5v163q0 41 -17 56.5t-65 15.5z" />
    <glyph glyph-name="asciitilde" unicode="~" horiz-adv-x="519" 
d="M128 221h-59q-9 68 14 103t65 33q34 -2 108.5 -26.5t96.5 -26.5q24 -4 31.5 7t7.5 41h59q9 -67 -13.5 -101.5t-65.5 -32.5q-38 1 -112.5 26t-93.5 27q-24 3 -31 -8t-7 -42z" />
    <glyph glyph-name="exclamdown" unicode="&#xa1;" horiz-adv-x="271" 
d="M122 501h29q24 0 33.5 -9.5t9.5 -33.5v-52q0 -24 -9.5 -33t-33.5 -9h-29q-25 0 -34.5 9t-9.5 33v52q0 24 9.5 33.5t34.5 9.5zM196 91v-281h-121v281l13 194h95z" />
    <glyph glyph-name="cent" unicode="&#xa2;" horiz-adv-x="513" 
d="M453 199l12 -78q-66 -27 -163 -30l-9 -91h-54l9 92q-111 7 -157 66t-46 191q0 141 54.5 199.5t186.5 58.5l13 -1l9 84h54l-8 -87q63 -7 103 -24l-14 -78q-32 3 -100 5l-30 -316q77 0 140 9zM260 193l28 313q-69 -3 -96 -37t-27 -120q0 -78 21.5 -113.5t73.5 -42.5z" />
    <glyph glyph-name="sterling" unicode="&#xa3;" horiz-adv-x="577" 
d="M531 105v-105h-476v105q49 22 65 64.5t12 105.5l-3 55h-77l-1 67h74l-8 121q-6 110 41.5 147t156.5 37q84 0 194 -10l-7 -98q-70 3 -177 3q-51 0 -70 -17t-15 -66l8 -117h192l-4 -67h-184l4 -55q4 -66 -13 -103.5t-58 -72.5q24 6 71 6h275z" />
    <glyph glyph-name="currency" unicode="&#xa4;" horiz-adv-x="589" 
d="M479 115l-72 72q-51 -35 -113 -35t-113 35l-70 -71l-55 55l71 71q-33 49 -33 109q0 63 35 114l-70 70l52 52l69 -71q52 35 114 35q64 0 114 -36l72 72l51 -52l-72 -71q34 -49 34 -113q0 -62 -35 -113l73 -71zM294 223q52 -1 89.5 37t37.5 92t-37.5 91.5t-89.5 37.5
q-53 0 -91 -37.5t-38 -91.5t38 -92t91 -37z" />
    <glyph glyph-name="yen" unicode="&#xa5;" horiz-adv-x="635" 
d="M424 333h125v-68h-160l-8 -16v-32h168v-67h-168v-150h-125v150h-164l-1 67h165v31l-9 17h-155l-2 68h122l-184 357h130l127 -259q4 -9 29 -83h9q15 52 29 84l126 258h129z" />
    <glyph glyph-name="brokenbar" unicode="&#xa6;" horiz-adv-x="256" 
d="M171 381h-86v400h86v-400zM171 -169h-86v400h86v-400z" />
    <glyph glyph-name="section" unicode="&#xa7;" horiz-adv-x="548" 
d="M317 314l-162 93q-49 28 -74.5 61.5t-25.5 95.5q0 82 50 110.5t161 28.5q127 -2 220 -12l-8 -92q-70 5 -178 5q-62 1 -88 -6.5t-28 -37.5q-1 -27 13.5 -43.5t45.5 -33.5l146 -80q75 -39 93.5 -99t-6.5 -143h-86q4 62 -11 94t-62 59zM73 372h86q-5 -63 9.5 -94.5
t62.5 -58.5l162 -92q50 -28 75.5 -62t25.5 -97q0 -84 -51 -112t-159 -28q-134 2 -222 12l9 92q69 -5 179 -6q42 0 63 2.5t36 13t15 31.5q2 27 -13 44t-44 32l-146 81q-75 38 -94 98t6 144z" />
    <glyph glyph-name="dieresis" unicode="&#xa8;" horiz-adv-x="418" 
d="M100 703h41q29 0 29 -31v-55q0 -30 -29 -30h-41q-29 0 -29 30v55q0 31 29 31zM280 703h39q31 0 31 -31v-55q0 -30 -31 -30h-39q-31 0 -31 30v55q0 31 31 31z" />
    <glyph glyph-name="copyright" unicode="&#xa9;" horiz-adv-x="822" 
d="M411 703q152 0 256 -101.5t104 -256.5t-104 -256.5t-256 -101.5t-256.5 102t-104.5 256t104.5 256t256.5 102zM411 643q-124 0 -211 -85.5t-87 -212.5t87 -212.5t211 -85.5t210.5 85t86.5 213t-86.5 213t-210.5 85zM554 217l7 -67q-60 -16 -145 -16q-107 0 -151 47.5
t-44 165.5q0 117 44 165t151 48q79 0 135 -14l-8 -68q-65 3 -128 3q-58 0 -79.5 -28.5t-21.5 -105.5q0 -78 21 -106t80 -28q84 0 139 4z" />
    <glyph glyph-name="ordfeminine" unicode="&#xaa;" horiz-adv-x="439" 
d="M79 533l-8 63q96 16 180 16q62 0 93.5 -27t31.5 -91v-220h-72l-10 57q-56 -65 -136 -65q-47 0 -75.5 23.5t-28.5 66.5v37q0 38 26.5 60t72.5 22h133v20q0 44 -55 44q-44 0 -152 -6zM141 385v-10q0 -20 11.5 -28t35.5 -8q47 0 98 39v50l-102 -9q-43 -3 -43 -34z" />
    <glyph glyph-name="guillemotleft" unicode="&#xab;" horiz-adv-x="504" 
d="M262 421l-114 -170l115 -174l-64 -41l-160 202v26l159 198zM458 421l-114 -170l115 -174l-64 -41l-160 202v26l159 198z" />
    <glyph glyph-name="logicalnot" unicode="&#xac;" horiz-adv-x="587" 
d="M516 344v-210h-91v121h-360v89h451z" />
    <glyph glyph-name="softhyphen" unicode="&#xad;" horiz-adv-x="428" 
d="M364 211h-300v86h300v-86z" />
    <glyph glyph-name="registered" unicode="&#xae;" horiz-adv-x="536" 
d="M269 702q92 0 157 -65t65 -157q0 -93 -65 -158t-157 -65q-93 0 -158 65t-65 158q0 92 65 157t158 65zM269 295q75 0 129 54.5t54 130.5q0 77 -54 131t-129 54q-77 0 -130.5 -54t-53.5 -131t54 -131t130 -54zM323 476v-2q31 -4 40 -38l26 -76h-56l-23 74q-9 23 -35 23h-53
v-97h-53v244q34 3 107 3q56 0 79.5 -15.5t23.5 -55.5q0 -53 -56 -60zM222 494h53q30 1 40.5 8.5t9.5 28.5q1 22 -9.5 29t-40.5 7h-53v-73z" />
    <glyph glyph-name="macron" unicode="&#xaf;" horiz-adv-x="400" 
d="M345 601h-290v84h290v-84z" />
    <glyph glyph-name="degree" unicode="&#xb0;" horiz-adv-x="352" 
d="M176 703q54 0 93.5 -37.5t39.5 -91.5t-39 -93t-94 -39t-94 39t-39 93q0 53 39 91t94 38zM176 636q-27 0 -45 -17.5t-18 -44.5q0 -28 18 -46t45 -18q26 0 44 18t18 46q0 27 -17.5 44.5t-44.5 17.5z" />
    <glyph glyph-name="plusminus" unicode="&#xb1;" horiz-adv-x="581" 
d="M515 411v-90h-180v-125h-90v125h-179v90h179v126h91v-126h179zM66 145h449v-90h-449v90z" />
    <glyph glyph-name="twosuperior" unicode="&#xb2;" horiz-adv-x="433" 
d="M62 697l-4 70q76 14 146 14q85 0 122 -20.5t37 -81.5q0 -59 -76 -132l-114 -108q26 5 64 3h141v-82h-324v51q0 25 15 39l112 106q77 73 80 113q2 20 -13.5 26.5t-51.5 6.5q-60 0 -134 -5z" />
    <glyph glyph-name="threesuperior" unicode="&#xb3;" horiz-adv-x="414" 
d="M64 704l-4 67q75 11 142 11q85 0 118 -20.5t33 -75.5q0 -47 -16.5 -73t-60.5 -32v-2q48 -7 67.5 -31.5t20.5 -72.5q2 -66 -34 -94.5t-123 -28.5q-65 0 -155 11l4 69q69 -4 127 -4q49 0 67.5 12.5t18.5 47.5q0 26 -15.5 39.5t-58.5 13.5h-85v67h85q41 0 54 14.5t13 39.5
q0 26 -15.5 35t-59.5 9q-57 0 -123 -2z" />
    <glyph glyph-name="acute" unicode="&#xb4;" horiz-adv-x="337" 
d="M302 642l-213 -112l-38 54l188 147z" />
    <glyph glyph-name="paragraph" unicode="&#xb6;" horiz-adv-x="596" 
d="M262 -210v411q-122 11 -175.5 69t-53.5 180q0 138 71.5 195t240.5 57q97 0 162 -17v-685h-87v624q-46 2 -73 3v-837h-85z" />
    <glyph glyph-name="periodcentered" unicode="&#xb7;" horiz-adv-x="249" 
d="M106 327h37q24 0 33.5 -9.5t9.5 -34.5v-50q0 -25 -9.5 -34.5t-33.5 -9.5h-37q-24 0 -33.5 9.5t-9.5 34.5v50q0 25 9.5 34.5t33.5 9.5z" />
    <glyph glyph-name="cedilla" unicode="&#xb8;" horiz-adv-x="242" 
d="M71 -93l12 53q73 8 102.5 -4.5t28.5 -60.5q-2 -69 -54.5 -104.5t-130.5 -25.5l17 59q36 -1 60 15.5t26 45.5q1 14 -11 18t-50 4z" />
    <glyph glyph-name="onesuperior" unicode="&#xb9;" horiz-adv-x="300" 
d="M233 360h-94v288q0 30 4 45l-106 -24l-11 63l113 42h94v-414z" />
    <glyph glyph-name="ordmasculine" unicode="&#xba;" horiz-adv-x="441" 
d="M221 612q94 0 132.5 -39.5t38.5 -134.5t-38.5 -133.5t-132.5 -38.5q-95 0 -133 38.5t-38 133.5q0 96 38 135t133 39zM221 541q-45 0 -61.5 -21t-16.5 -82q0 -60 16.5 -81t61.5 -21t61 21t16 81q0 61 -16 82t-61 21z" />
    <glyph glyph-name="guillemotright" unicode="&#xbb;" horiz-adv-x="504" 
d="M465 264v-26l-160 -202l-64 41l115 174l-114 170l64 41zM269 264v-26l-160 -202l-64 41l115 174l-114 170l64 41z" />
    <glyph glyph-name="onequarter" unicode="&#xbc;" horiz-adv-x="881" 
d="M143 276v288q0 25 4 45l-106 -24l-11 63l113 42h93v-414h-93zM655 690l-428 -690h-82l428 690h82zM845 97l-49 -7v-90h-87v89h-182q-28 0 -42.5 19.5t-0.5 50.5l117 255h88l-108 -237q-3 -8 1.5 -13t14.5 -5h112v109l15 66h72v-175h49v-62z" />
    <glyph glyph-name="onehalf" unicode="&#xbd;" horiz-adv-x="900" 
d="M236 276h-93v288q0 25 4 45l-106 -24l-11 63l113 42h93v-414zM219 0h-82l429 690h81zM540 337l-4 70q75 14 145 14q85 0 122.5 -21t37.5 -81q0 -57 -76 -132l-114 -108q26 5 64 3h140v-82h-323v51q0 25 14 39l112 106q77 72 81 113q1 20 -14.5 26.5t-50.5 6.5
q-60 0 -134 -5z" />
    <glyph glyph-name="threequarters" unicode="&#xbe;" horiz-adv-x="970" 
d="M273 495v-2q48 -7 67.5 -31.5t20.5 -72.5q1 -66 -35 -94.5t-122 -28.5q-65 0 -155 11l4 69q69 -4 126 -4q49 0 67.5 12.5t18.5 46.5q0 26 -15 40t-58 14l-85 2v62l85 3q41 0 53.5 14t12.5 39q0 27 -15.5 36t-59.5 9q-73 0 -122 -3l-4 68q70 10 142 10q85 0 117.5 -20.5
t32.5 -74.5q0 -47 -16 -73t-60 -32zM752 690l-429 -690h-81l428 690h82zM934 97l-48 -7v-90h-87v89h-182q-29 0 -43.5 19.5t0.5 50.5l117 255h88l-108 -237q-4 -7 0.5 -12.5t14.5 -5.5h113v109l15 66h72v-175h48v-62z" />
    <glyph glyph-name="questiondown" unicode="&#xbf;" horiz-adv-x="503" 
d="M250 505h28q25 0 34.5 -9.5t9.5 -33.5v-52q0 -24 -9.5 -33.5t-34.5 -9.5h-28q-25 0 -34.5 9.5t-9.5 33.5v52q0 24 9.5 33.5t34.5 9.5zM213 289h100q2 -50 -12.5 -92.5t-37 -71.5t-45 -53.5t-39.5 -50.5t-18 -51q-2 -39 23.5 -57.5t84.5 -18.5q79 0 198 7l5 -85
l-22.5 -4.5l-22.5 -4.5t-19.5 -3.5t-21.5 -3t-21.5 -2.5t-25.5 -2.5t-27 -1.5t-33.5 -1h-37.5q-208 0 -208 155q0 41 17.5 75.5t43 60.5t51.5 53t45.5 66t22.5 86z" />
    <glyph glyph-name="Agrave" unicode="&#xc0;" horiz-adv-x="636" 
d="M341 724l-213 112l63 90l188 -148zM446 195h-256l-57 -195h-128l207 657q9 33 45 33h122q36 0 45 -33l207 -657h-128zM416 298l-69 238q-14 54 -15 59h-27l-16 -59l-69 -238h196z" />
    <glyph glyph-name="Aacute" unicode="&#xc1;" horiz-adv-x="636" 
d="M281 724l-38 54l188 148l62 -90zM446 195h-256l-57 -195h-128l207 657q9 33 45 33h122q36 0 45 -33l207 -657h-128zM416 298l-69 238q-14 54 -15 59h-27l-16 -59l-69 -238h196z" />
    <glyph glyph-name="Acircumflex" unicode="&#xc2;" horiz-adv-x="636" 
d="M180 723l-37 50l132 132h88l131 -133l-38 -49l-133 96h-8zM446 195h-256l-57 -195h-128l207 657q9 33 45 33h122q36 0 45 -33l207 -657h-128zM416 298l-69 238q-14 54 -15 59h-27l-16 -59l-69 -238h196z" />
    <glyph glyph-name="Atilde" unicode="&#xc3;" horiz-adv-x="636" 
d="M205 760h-53q-9 65 15 99t65 31q33 -3 81 -25t74 -25q25 -4 34 6.5t9 38.5h53q9 -63 -14 -97.5t-66 -31.5q-38 3 -87 26t-69 26q-25 3 -33.5 -8t-8.5 -40zM446 195h-256l-57 -195h-128l207 657q9 33 45 33h122q36 0 45 -33l207 -657h-128zM416 298l-69 238q-14 54 -15 59
h-27l-16 -59l-69 -238h196z" />
    <glyph glyph-name="Adieresis" unicode="&#xc4;" horiz-adv-x="636" 
d="M249 763h-40q-30 0 -30 30v55q0 31 30 31h40q29 0 29 -31v-55q0 -30 -29 -30zM428 763h-40q-30 0 -30 30v55q0 31 30 31h40q30 0 30 -31v-55q0 -30 -30 -30zM446 195h-256l-57 -195h-128l207 657q9 33 45 33h122q36 0 45 -33l207 -657h-128zM416 298l-69 238
q-14 54 -15 59h-27l-16 -59l-69 -238h196z" />
    <glyph glyph-name="Aring" unicode="&#xc5;" horiz-adv-x="636" 
d="M319 713q-48 0 -81 31.5t-33 78.5t33.5 79t80.5 32q46 0 79.5 -32t33.5 -79t-33 -78.5t-80 -31.5zM319 878q-23 0 -38 -15t-15 -40q0 -24 15.5 -38.5t37.5 -14.5t37.5 14.5t15.5 38.5q0 25 -15.5 40t-37.5 15zM446 195h-256l-57 -195h-128l207 657q9 33 45 33h122
q36 0 45 -33l207 -657h-128zM416 298l-69 238q-14 54 -15 59h-27l-16 -59l-69 -238h196z" />
    <glyph glyph-name="AE" unicode="&#xc6;" horiz-adv-x="921" 
d="M870 102l6 -96q-97 -8 -307 -8q-55 0 -89 36.5t-34 94.5v73h-217l-107 -202h-130l312 568q37 71 92 97t170 26q196 0 310 -7l-6 -97h-248q-27 0 -43 -16.5t-16 -44.5v-116h270v-97h-270v-153q0 -32 13.5 -45t45.5 -13h248zM446 301v239q0 45 26 69h-9q-22 -14 -48 -57
l-133 -251h164z" />
    <glyph glyph-name="Ccedilla" unicode="&#xc7;" horiz-adv-x="578" 
d="M535 108l11 -94q-83 -26 -212 -26q-155 0 -218 80t-63 277t63 277t218 80q116 0 198 -22l-12 -95q-87 7 -186 7q-86 0 -117.5 -52.5t-31.5 -194.5t31.5 -194.5t117.5 -52.5q127 0 201 10zM259 -108l12 53q74 8 103.5 -4.5t27.5 -60.5q-2 -69 -54.5 -104.5t-130.5 -24.5
l18 59q36 -1 60 15t25 45q1 14 -10.5 18t-50.5 4z" />
    <glyph glyph-name="Egrave" unicode="&#xc8;" 
d="M334 741l-213 111l63 90l188 -147zM517 101l6 -95q-91 -8 -304 -8q-68 0 -107.5 35t-40.5 96v432q1 61 40.5 96t107.5 35q213 0 304 -8l-6 -96h-270q-27 0 -38.5 -13t-11.5 -45v-121h283v-96h-283v-154q0 -32 11.5 -45t38.5 -13h270z" />
    <glyph glyph-name="Eacute" unicode="&#xc9;" 
d="M274 741l-38 54l188 147l62 -90zM517 101l6 -95q-91 -8 -304 -8q-68 0 -107.5 35t-40.5 96v432q1 61 40.5 96t107.5 35q213 0 304 -8l-6 -96h-270q-27 0 -38.5 -13t-11.5 -45v-121h283v-96h-283v-154q0 -32 11.5 -45t38.5 -13h270z" />
    <glyph glyph-name="Ecircumflex" unicode="&#xca;" 
d="M173 740l-37 50l132 131h88l131 -132l-38 -49l-133 95h-8zM517 101l6 -95q-91 -8 -304 -8q-68 0 -107.5 35t-40.5 96v432q1 61 40.5 96t107.5 35q213 0 304 -8l-6 -96h-270q-27 0 -38.5 -13t-11.5 -45v-121h283v-96h-283v-154q0 -32 11.5 -45t38.5 -13h270z" />
    <glyph glyph-name="Edieresis" unicode="&#xcb;" 
d="M242 779h-40q-30 0 -30 31v55q0 30 30 30h40q29 0 29 -30v-55q0 -31 -29 -31zM421 779h-40q-30 0 -30 31v55q0 30 30 30h40q30 0 30 -30v-55q0 -31 -30 -31zM517 101l6 -95q-91 -8 -304 -8q-68 0 -107.5 35t-40.5 96v432q1 61 40.5 96t107.5 35q213 0 304 -8l-6 -96h-270
q-27 0 -38.5 -13t-11.5 -45v-121h283v-96h-283v-154q0 -32 11.5 -45t38.5 -13h270z" />
    <glyph glyph-name="Igrave" unicode="&#xcc;" horiz-adv-x="279" 
d="M200 778l-38 -54l-212 112l62 90zM202 0h-125v690h125v-690z" />
    <glyph glyph-name="Iacute" unicode="&#xcd;" horiz-adv-x="279" 
d="M315 836l-213 -112l-38 54l188 148zM202 0h-125v690h125v-690z" />
    <glyph glyph-name="Icircumflex" unicode="&#xce;" horiz-adv-x="279" 
d="M316 772l-39 -49l-133 96h-8l-134 -96l-37 50l131 132h88zM202 0h-125v690h125v-690z" />
    <glyph glyph-name="Idieresis" unicode="&#xcf;" horiz-adv-x="279" 
d="M30 879h40q30 0 30 -31v-55q0 -30 -30 -30h-40q-29 0 -29 30v55q0 31 29 31zM210 879h39q30 0 30 -31v-55q0 -30 -30 -30h-39q-31 0 -31 30v55q0 31 31 31zM202 0h-125v690h125v-690z" />
    <glyph glyph-name="Eth" unicode="&#xd0;" horiz-adv-x="675" 
d="M81 397v293q137 9 258 9q157 0 219.5 -76.5t62.5 -277.5t-62.5 -277.5t-219.5 -76.5q-121 0 -258 9v331h-62v66h62zM207 331v-233q76 -2 132 -2q86 0 118 53.5t32 195.5q0 143 -32.5 196.5t-117.5 53.5q-26 0 -70 -0.5t-62 -0.5v-197h134v-66h-134z" />
    <glyph glyph-name="Ntilde" unicode="&#xd1;" horiz-adv-x="715" 
d="M250 760h-53q-9 65 15.5 99t64.5 31q34 -3 82 -25t73 -25q25 -4 34 6.5t9 38.5h53q9 -63 -14 -97.5t-66 -31.5q-38 3 -87 26t-69 26q-25 3 -33.5 -8t-8.5 -40zM638 690v-644q0 -46 -46 -46h-99q-36 0 -52 38l-194 423q-35 75 -41 103h-12q6 -42 6 -104v-460h-123v644
q0 46 47 46h97q20 0 31.5 -9t20.5 -29l188 -411q3 -7 21 -47t27 -62h12q-5 63 -5 112v446h122z" />
    <glyph glyph-name="Ograve" unicode="&#xd2;" horiz-adv-x="675" 
d="M396 778l-38 -54l-212 112l62 90zM337 703q160 0 222.5 -77t62.5 -281t-62.5 -281t-222.5 -77q-159 0 -221.5 77t-62.5 281t62.5 281t221.5 77zM337 596q-87 0 -119.5 -53.5t-32.5 -197.5t32.5 -197.5t119.5 -53.5q88 0 120.5 53.5t32.5 197.5t-32.5 197.5t-120.5 53.5z
" />
    <glyph glyph-name="Oacute" unicode="&#xd3;" horiz-adv-x="675" 
d="M511 836l-213 -112l-37 54l187 148zM337 703q160 0 222.5 -77t62.5 -281t-62.5 -281t-222.5 -77q-159 0 -221.5 77t-62.5 281t62.5 281t221.5 77zM337 596q-87 0 -119.5 -53.5t-32.5 -197.5t32.5 -197.5t119.5 -53.5q88 0 120.5 53.5t32.5 197.5t-32.5 197.5t-120.5 53.5
z" />
    <glyph glyph-name="Ocircumflex" unicode="&#xd4;" horiz-adv-x="675" 
d="M512 772l-39 -49l-133 96h-8l-134 -96l-37 50l132 132h87zM337 703q160 0 222.5 -77t62.5 -281t-62.5 -281t-222.5 -77q-159 0 -221.5 77t-62.5 281t62.5 281t221.5 77zM337 596q-87 0 -119.5 -53.5t-32.5 -197.5t32.5 -197.5t119.5 -53.5q88 0 120.5 53.5t32.5 197.5
t-32.5 197.5t-120.5 53.5z" />
    <glyph glyph-name="Otilde" unicode="&#xd5;" horiz-adv-x="675" 
d="M223 760h-53q-9 65 15 99t65 31q33 -3 81 -25t74 -25q25 -4 34 6.5t9 38.5h53q9 -63 -14 -97.5t-66 -31.5q-38 3 -87.5 26t-68.5 26q-25 3 -33.5 -8t-8.5 -40zM337 703q160 0 222.5 -77t62.5 -281t-62.5 -281t-222.5 -77q-159 0 -221.5 77t-62.5 281t62.5 281t221.5 77z
M337 596q-87 0 -119.5 -53.5t-32.5 -197.5t32.5 -197.5t119.5 -53.5q88 0 120.5 53.5t32.5 197.5t-32.5 197.5t-120.5 53.5z" />
    <glyph glyph-name="Odieresis" unicode="&#xd6;" horiz-adv-x="675" 
d="M226 879h41q29 0 29 -31v-55q0 -30 -29 -30h-41q-29 0 -29 30v55q0 31 29 31zM406 879h39q31 0 31 -31v-55q0 -30 -31 -30h-39q-30 0 -30 30v55q0 31 30 31zM337 703q160 0 222.5 -77t62.5 -281t-62.5 -281t-222.5 -77q-159 0 -221.5 77t-62.5 281t62.5 281t221.5 77z
M337 596q-87 0 -119.5 -53.5t-32.5 -197.5t32.5 -197.5t119.5 -53.5q88 0 120.5 53.5t32.5 197.5t-32.5 197.5t-120.5 53.5z" />
    <glyph glyph-name="multiply" unicode="&#xd7;" horiz-adv-x="486" 
d="M36 417l360 -323l58 70l-359 323z" />
    <glyph glyph-name="Oslash" unicode="&#xd8;" horiz-adv-x="675" 
d="M549 731l-31 -68q55 -36 79.5 -111.5t24.5 -206.5q0 -204 -62.5 -281t-222.5 -77q-76 0 -128 16l-30 -64l-56 23l32 66q-54 36 -78 111.5t-24 205.5q0 204 62.5 281t221.5 77q78 0 126 -15l31 66zM213 154l201 428q-29 14 -77 14q-87 0 -119.5 -53.5t-32.5 -197.5
q0 -136 28 -191zM460 539l-201 -430q30 -15 78 -15q88 0 120.5 53.5t32.5 197.5q0 141 -30 194z" />
    <glyph glyph-name="Ugrave" unicode="&#xd9;" horiz-adv-x="671" 
d="M396 778l-38 -54l-212 112l62 90zM599 690v-420q0 -155 -58 -219t-200 -64q-148 0 -208.5 64t-60.5 219v420h125v-420q0 -99 30.5 -137.5t108.5 -38.5q77 0 107 38.5t30 137.5v420h126z" />
    <glyph glyph-name="Uacute" unicode="&#xda;" horiz-adv-x="671" 
d="M511 836l-213 -112l-37 54l187 148zM599 690v-420q0 -155 -58 -219t-200 -64q-148 0 -208.5 64t-60.5 219v420h125v-420q0 -99 30.5 -137.5t108.5 -38.5q77 0 107 38.5t30 137.5v420h126z" />
    <glyph glyph-name="Ucircumflex" unicode="&#xdb;" horiz-adv-x="671" 
d="M512 772l-39 -49l-133 96h-8l-134 -96l-37 50l132 132h87zM599 690v-420q0 -155 -58 -219t-200 -64q-148 0 -208.5 64t-60.5 219v420h125v-420q0 -99 30.5 -137.5t108.5 -38.5q77 0 107 38.5t30 137.5v420h126z" />
    <glyph glyph-name="Udieresis" unicode="&#xdc;" horiz-adv-x="671" 
d="M226 879h41q29 0 29 -31v-55q0 -30 -29 -30h-41q-29 0 -29 30v55q0 31 29 31zM406 879h39q31 0 31 -31v-55q0 -30 -31 -30h-39q-30 0 -30 30v55q0 31 30 31zM599 690v-420q0 -155 -58 -219t-200 -64q-148 0 -208.5 64t-60.5 219v420h125v-420q0 -99 30.5 -137.5
t108.5 -38.5q77 0 107 38.5t30 137.5v420h126z" />
    <glyph glyph-name="Yacute" unicode="&#xdd;" horiz-adv-x="589" 
d="M256 724l-38 54l188 148l63 -90zM357 233v-233h-125v235l-227 455h132l126 -268q7 -16 28 -83h8q21 67 28 83l126 268h130z" />
    <glyph glyph-name="Thorn" unicode="&#xde;" horiz-adv-x="601" 
d="M203 690v-118q34 1 124 1q134 0 184.5 -47.5t50.5 -178.5q0 -130 -48 -177t-172 -47q-73 0 -139 8v-131h-126v563v1v126h126zM203 226h120q66 1 89.5 25t23.5 96q0 73 -23.5 98t-89.5 25h-120v-244z" />
    <glyph glyph-name="germandbls" unicode="&#xdf;" horiz-adv-x="691" 
d="M491 309l88 -47q47 -26 65.5 -53.5t18.5 -78.5q0 -80 -43 -110.5t-143 -30.5q-74 0 -162 11l7 87q69 -3 128 -3q56 0 74.5 9t18.5 42q0 12 -3 20.5t-14.5 18t-18 13.5t-29.5 17l-88 46q-78 42 -78 116q0 20 4.5 35t18.5 30.5t20 21.5t31.5 23.5t30.5 21.5
q32 24 43.5 40.5t11.5 39.5q0 27 -23 40.5t-95 13.5q-73 0 -97.5 -19t-24.5 -77v-536h-122v401h-87v89h87v60q0 105 56 141t183 36q133 0 184.5 -31.5t51.5 -112.5q0 -37 -15.5 -66t-61.5 -63q-11 -9 -32 -23t-28 -20t-14 -17t-7 -24t9.5 -24.5t18 -16.5t36.5 -20z" />
    <glyph glyph-name="agrave" unicode="&#xe0;" horiz-adv-x="558" 
d="M296 544l-212 112l62 89l188 -147zM77 394l-12 86q129 24 245 24q95 0 139.5 -38t44.5 -133v-333h-96l-13 75q-77 -86 -187 -86q-69 0 -112 37.5t-43 104.5v50q0 59 38 91t107 32h184v30q-1 42 -19 56t-71 14q-77 0 -205 -10zM164 166v-19q0 -60 64 -60q73 0 144 58v76
h-156q-29 -1 -40.5 -15t-11.5 -40z" />
    <glyph glyph-name="aacute" unicode="&#xe1;" horiz-adv-x="558" 
d="M236 544l-38 54l188 147l63 -89zM77 394l-12 86q129 24 245 24q95 0 139.5 -38t44.5 -133v-333h-96l-13 75q-77 -86 -187 -86q-69 0 -112 37.5t-43 104.5v50q0 59 38 91t107 32h184v30q-1 42 -19 56t-71 14q-77 0 -205 -10zM164 166v-19q0 -60 64 -60q73 0 144 58v76
h-156q-29 -1 -40.5 -15t-11.5 -40z" />
    <glyph glyph-name="acircumflex" unicode="&#xe2;" horiz-adv-x="558" 
d="M136 543l-37 50l131 131h88l132 -132l-39 -49l-133 96h-8zM77 394l-12 86q129 24 245 24q95 0 139.5 -38t44.5 -133v-333h-96l-13 75q-77 -86 -187 -86q-69 0 -112 37.5t-43 104.5v50q0 59 38 91t107 32h184v30q-1 42 -19 56t-71 14q-77 0 -205 -10zM164 166v-19
q0 -60 64 -60q73 0 144 58v76h-156q-29 -1 -40.5 -15t-11.5 -40z" />
    <glyph glyph-name="atilde" unicode="&#xe3;" horiz-adv-x="558" 
d="M161 579h-53q-9 65 15 99t64 31q34 -3 82 -24.5t74 -24.5q25 -4 33.5 6.5t8.5 37.5h54q9 -63 -14 -97t-66 -31q-38 3 -87.5 26t-68.5 26q-25 3 -33.5 -8.5t-8.5 -40.5zM77 394l-12 86q129 24 245 24q95 0 139.5 -38t44.5 -133v-333h-96l-13 75q-77 -86 -187 -86
q-69 0 -112 37.5t-43 104.5v50q0 59 38 91t107 32h184v30q-1 42 -19 56t-71 14q-77 0 -205 -10zM164 166v-19q0 -60 64 -60q73 0 144 58v76h-156q-29 -1 -40.5 -15t-11.5 -40z" />
    <glyph glyph-name="adieresis" unicode="&#xe4;" horiz-adv-x="558" 
d="M205 583h-41q-29 0 -29 30v55q0 31 29 31h41q29 0 29 -31v-55q0 -30 -29 -30zM383 583h-39q-31 0 -31 30v55q0 31 31 31h39q31 0 31 -31v-55q0 -30 -31 -30zM77 394l-12 86q129 24 245 24q95 0 139.5 -38t44.5 -133v-333h-96l-13 75q-77 -86 -187 -86q-69 0 -112 37.5
t-43 104.5v50q0 59 38 91t107 32h184v30q-1 42 -19 56t-71 14q-77 0 -205 -10zM164 166v-19q0 -60 64 -60q73 0 144 58v76h-156q-29 -1 -40.5 -15t-11.5 -40z" />
    <glyph glyph-name="aring" unicode="&#xe5;" horiz-adv-x="558" 
d="M275 533q-48 0 -81 31.5t-33 78.5t33 79t81 32q46 0 79.5 -32t33.5 -79t-33 -78.5t-80 -31.5zM275 698q-24 0 -38.5 -15t-14.5 -40t15 -39.5t38 -14.5q22 0 37 14.5t15 39.5t-15 40t-37 15zM77 394l-12 86q129 24 245 24q95 0 139.5 -38t44.5 -133v-333h-96l-13 75
q-77 -86 -187 -86q-69 0 -112 37.5t-43 104.5v50q0 59 38 91t107 32h184v30q-1 42 -19 56t-71 14q-77 0 -205 -10zM164 166v-19q0 -60 64 -60q73 0 144 58v76h-156q-29 -1 -40.5 -15t-11.5 -40z" />
    <glyph glyph-name="ae" unicode="&#xe6;" horiz-adv-x="870" 
d="M698 194h-200q7 -64 36 -85.5t96 -21.5q74 0 175 12l11 -78q-69 -33 -202 -33q-86 0 -138.5 24t-77.5 76q-82 -99 -200 -99q-69 0 -112 37.5t-43 104.5v50q0 58 38 90.5t106 32.5h184v30q0 42 -18.5 56t-71.5 14q-77 0 -205 -10l-11 86q129 24 244 24q95 0 139 -38
q52 38 159 38q116 0 168.5 -42t53.5 -128q0 -140 -131 -140zM496 279h168q44 0 44 57q0 40 -20.5 56t-75.5 16q-65 0 -89.5 -26.5t-26.5 -102.5zM164 166v-19q0 -32 15 -46t49 -14q78 0 150 64q-7 35 -8 70h-154q-29 -1 -40.5 -15t-11.5 -40z" />
    <glyph glyph-name="ccedilla" unicode="&#xe7;" horiz-adv-x="498" 
d="M454 98l11 -80q-73 -30 -180 -30q-131 0 -185 58t-54 200t54.5 200t185.5 58q103 0 171 -28l-14 -76q-49 2 -136 2q-76 0 -105 -33t-29 -123q0 -91 29 -124.5t105 -33.5q79 0 147 10zM212 -106l12 53q74 8 103.5 -4.5t27.5 -60.5q-2 -69 -54.5 -104.5t-130.5 -24.5l18 59
q36 -1 60 15t25 45q1 14 -10.5 18t-50.5 4z" />
    <glyph glyph-name="egrave" unicode="&#xe8;" horiz-adv-x="548" 
d="M307 544l-213 112l63 89l188 -147zM375 194h-200q7 -64 36 -85.5t95 -21.5q75 0 176 12l11 -78q-69 -33 -202 -33t-189 59t-56 199q0 143 55 200.5t182 57.5q117 0 170 -42.5t53 -127.5q0 -140 -131 -140zM173 279h168q44 0 44 57q0 40 -21 56t-76 16q-64 0 -88.5 -26.5
t-26.5 -102.5z" />
    <glyph glyph-name="eacute" unicode="&#xe9;" horiz-adv-x="548" 
d="M247 544l-38 54l188 147l63 -89zM375 194h-200q7 -64 36 -85.5t95 -21.5q75 0 176 12l11 -78q-69 -33 -202 -33t-189 59t-56 199q0 143 55 200.5t182 57.5q117 0 170 -42.5t53 -127.5q0 -140 -131 -140zM173 279h168q44 0 44 57q0 40 -21 56t-76 16q-64 0 -88.5 -26.5
t-26.5 -102.5z" />
    <glyph glyph-name="ecircumflex" unicode="&#xea;" horiz-adv-x="548" 
d="M147 543l-37 50l131 131h88l132 -132l-39 -49l-133 96h-8zM375 194h-200q7 -64 36 -85.5t95 -21.5q75 0 176 12l11 -78q-69 -33 -202 -33t-189 59t-56 199q0 143 55 200.5t182 57.5q117 0 170 -42.5t53 -127.5q0 -140 -131 -140zM173 279h168q44 0 44 57q0 40 -21 56
t-76 16q-64 0 -88.5 -26.5t-26.5 -102.5z" />
    <glyph glyph-name="edieresis" unicode="&#xeb;" horiz-adv-x="548" 
d="M215 583h-40q-29 0 -29 30v55q0 31 29 31h40q30 0 30 -31v-55q0 -30 -30 -30zM394 583h-40q-30 0 -30 30v55q0 31 30 31h40q30 0 30 -31v-55q0 -30 -30 -30zM375 194h-200q7 -64 36 -85.5t95 -21.5q75 0 176 12l11 -78q-69 -33 -202 -33t-189 59t-56 199q0 143 55 200.5
t182 57.5q117 0 170 -42.5t53 -127.5q0 -140 -131 -140zM173 279h168q44 0 44 57q0 40 -21 56t-76 16q-64 0 -88.5 -26.5t-26.5 -102.5z" />
    <glyph glyph-name="igrave" unicode="&#xec;" horiz-adv-x="266" 
d="M194 598l-38 -54l-213 112l63 89zM194 0h-122v490h122v-490z" />
    <glyph glyph-name="iacute" unicode="&#xed;" horiz-adv-x="266" 
d="M308 656l-212 -112l-38 54l188 147zM194 0h-122v490h122v-490z" />
    <glyph glyph-name="icircumflex" unicode="&#xee;" horiz-adv-x="266" 
d="M309 592l-38 -49l-133 96h-8l-134 -96l-37 50l131 131h88zM194 0h-122v490h122v-490z" />
    <glyph glyph-name="idieresis" unicode="&#xef;" horiz-adv-x="266" 
d="M24 699h40q30 0 30 -31v-55q0 -30 -30 -30h-40q-30 0 -30 30v55q0 31 30 31zM203 699h40q30 0 30 -31v-55q0 -30 -30 -30h-40q-30 0 -30 30v55q0 31 30 31zM194 0h-122v490h122v-490z" />
    <glyph glyph-name="eth" unicode="&#xf0;" 
d="M455 670l-61 -49q121 -105 121 -336q0 -152 -52 -225t-183 -73q-120 0 -176.5 55.5t-56.5 174.5q0 117 48.5 175t159.5 58q69 0 122 -27q-17 88 -64 133l-72 -57l-40 48l58 46q-52 23 -138 20l12 85q120 6 207 -40l75 61zM281 84q67 0 87.5 45t20.5 159q0 9 -0.5 26
t-0.5 25q-48 14 -109 14q-58 0 -81.5 -31.5t-23.5 -102.5q0 -75 24.5 -105t82.5 -30z" />
    <glyph glyph-name="ntilde" unicode="&#xf1;" horiz-adv-x="590" 
d="M188 579h-53q-9 66 15 99.5t65 30.5q34 -3 82 -24.5t73 -24.5q25 -4 34 6.5t9 37.5h53q9 -63 -14 -97t-66 -31q-38 3 -87 26t-69 26q-25 3 -33.5 -8.5t-8.5 -40.5zM170 490l8 -72q114 86 212 86q65 0 100 -35t35 -101v-368h-122v331q0 41 -11 55.5t-41 14.5
q-34 0 -69.5 -14t-91.5 -46v-341h-122v490h102z" />
    <glyph glyph-name="ograve" unicode="&#xf2;" horiz-adv-x="576" 
d="M348 598l-38 -54l-212 112l62 89zM289 504q132 0 186.5 -59t54.5 -200t-54.5 -199.5t-186.5 -58.5q-133 0 -188 58.5t-55 199.5t55 200t188 59zM289 407q-68 0 -92 -33.5t-24 -128.5q0 -94 24 -127.5t92 -33.5q66 0 90.5 33.5t24.5 127.5q0 95 -24.5 128.5t-90.5 33.5z
" />
    <glyph glyph-name="oacute" unicode="&#xf3;" horiz-adv-x="576" 
d="M463 656l-213 -112l-38 54l188 147zM289 504q132 0 186.5 -59t54.5 -200t-54.5 -199.5t-186.5 -58.5q-133 0 -188 58.5t-55 199.5t55 200t188 59zM289 407q-68 0 -92 -33.5t-24 -128.5q0 -94 24 -127.5t92 -33.5q66 0 90.5 33.5t24.5 127.5q0 95 -24.5 128.5t-90.5 33.5z
" />
    <glyph glyph-name="ocircumflex" unicode="&#xf4;" horiz-adv-x="576" 
d="M464 592l-39 -49l-133 96h-8l-134 -96l-37 50l131 131h88zM289 504q132 0 186.5 -59t54.5 -200t-54.5 -199.5t-186.5 -58.5q-133 0 -188 58.5t-55 199.5t55 200t188 59zM289 407q-68 0 -92 -33.5t-24 -128.5q0 -94 24 -127.5t92 -33.5q66 0 90.5 33.5t24.5 127.5
q0 95 -24.5 128.5t-90.5 33.5z" />
    <glyph glyph-name="otilde" unicode="&#xf5;" horiz-adv-x="576" 
d="M175 579h-54q-9 65 15.5 99t64.5 31q34 -3 82 -24.5t73 -24.5q26 -4 34.5 6.5t8.5 37.5h53q9 -63 -13.5 -97t-65.5 -31q-38 3 -87.5 26t-68.5 26q-26 3 -34 -8t-8 -41zM289 504q132 0 186.5 -59t54.5 -200t-54.5 -199.5t-186.5 -58.5q-133 0 -188 58.5t-55 199.5t55 200
t188 59zM289 407q-68 0 -92 -33.5t-24 -128.5q0 -94 24 -127.5t92 -33.5q66 0 90.5 33.5t24.5 127.5q0 95 -24.5 128.5t-90.5 33.5z" />
    <glyph glyph-name="odieresis" unicode="&#xf6;" horiz-adv-x="576" 
d="M178 699h40q30 0 30 -31v-55q0 -30 -30 -30h-40q-29 0 -29 30v55q0 31 29 31zM358 699h39q30 0 30 -31v-55q0 -30 -30 -30h-39q-31 0 -31 30v55q0 31 31 31zM289 504q132 0 186.5 -59t54.5 -200t-54.5 -199.5t-186.5 -58.5q-133 0 -188 58.5t-55 199.5t55 200t188 59z
M289 407q-68 0 -92 -33.5t-24 -128.5q0 -94 24 -127.5t92 -33.5q66 0 90.5 33.5t24.5 127.5q0 95 -24.5 128.5t-90.5 33.5z" />
    <glyph glyph-name="divide" unicode="&#xf7;" horiz-adv-x="560" 
d="M264 539h30q25 0 34.5 -9.5t9.5 -34.5v-41q0 -25 -9.5 -34t-34.5 -9h-30q-25 0 -34.5 9t-9.5 34v41q0 25 9.5 34.5t34.5 9.5zM505 250h-450v88h450v-88zM264 176h30q25 0 34.5 -9.5t9.5 -34.5v-40q0 -25 -9.5 -34.5t-34.5 -9.5h-30q-25 0 -34.5 9.5t-9.5 34.5v40
q0 25 9.5 34.5t34.5 9.5z" />
    <glyph glyph-name="oslash" unicode="&#xf8;" horiz-adv-x="576" 
d="M456 549l-32 -68q56 -25 81 -82t25 -154q0 -141 -54.5 -199.5t-186.5 -58.5q-48 0 -91 8l-35 -77l-47 22l33 71q-54 26 -78.5 82.5t-24.5 151.5q0 141 55 200t188 59q45 0 85 -8l35 76zM198 117l133 286q-16 4 -42 4q-68 0 -92 -33.5t-24 -128.5t25 -128zM376 378
l-134 -289q16 -5 47 -5q66 0 90.5 33.5t24.5 127.5q0 100 -28 133z" />
    <glyph glyph-name="ugrave" unicode="&#xf9;" horiz-adv-x="579" 
d="M314 550l-212 111l62 90l188 -147zM511 490v-490h-96l-9 66q-104 -79 -205 -79q-136 0 -136 136v367h122v-331q-1 -39 12 -54t48 -15q50 0 143 54v346h121z" />
    <glyph glyph-name="uacute" unicode="&#xfa;" horiz-adv-x="579" 
d="M254 550l-37 54l187 147l63 -90zM511 490v-490h-96l-9 66q-104 -79 -205 -79q-136 0 -136 136v367h122v-331q-1 -39 12 -54t48 -15q50 0 143 54v346h121z" />
    <glyph glyph-name="ucircumflex" unicode="&#xfb;" horiz-adv-x="579" 
d="M154 549l-37 50l132 131h87l132 -132l-39 -49l-133 95h-8zM511 490v-490h-96l-9 66q-104 -79 -205 -79q-136 0 -136 136v367h122v-331q-1 -39 12 -54t48 -15q50 0 143 54v346h121z" />
    <glyph glyph-name="udieresis" unicode="&#xfc;" horiz-adv-x="579" 
d="M223 589h-41q-29 0 -29 30v55q0 30 29 30h41q29 0 29 -30v-55q0 -30 -29 -30zM401 589h-39q-30 0 -30 30v55q0 30 30 30h39q31 0 31 -30v-55q0 -30 -31 -30zM511 490v-490h-96l-9 66q-104 -79 -205 -79q-136 0 -136 136v367h122v-331q-1 -39 12 -54t48 -15q50 0 143 54
v346h121z" />
    <glyph glyph-name="yacute" unicode="&#xfd;" horiz-adv-x="546" 
d="M237 544l-37 54l187 147l63 -89zM533 490l-182 -505q-29 -83 -89 -138t-158 -50l-10 77q58 16 92 43.5t52 71.5l5 11h-24q-33 0 -41 30l-166 460h129l107 -337q10 -31 16 -65h14q4 12 10.5 34t9.5 31l105 337h130z" />
    <glyph glyph-name="thorn" unicode="&#xfe;" horiz-adv-x="584" 
d="M190 700v-149q0 -62 -4 -110q74 61 173 61q95 0 136 -62.5t41 -198.5q0 -142 -43 -198t-139 -56q-91 0 -167 40q3 -45 3 -93v-129h-122v895h122zM190 350v-239q75 -30 121 -30q55 0 77.5 34t22.5 126q0 94 -21.5 128t-73.5 34q-53 0 -126 -53z" />
    <glyph glyph-name="ydieresis" unicode="&#xff;" horiz-adv-x="546" 
d="M206 583h-41q-29 0 -29 30v55q0 31 29 31h41q29 0 29 -31v-55q0 -30 -29 -30zM384 583h-39q-30 0 -30 30v55q0 31 30 31h39q31 0 31 -31v-55q0 -30 -31 -30zM533 490l-182 -505q-29 -83 -89 -138t-158 -50l-10 77q58 16 92 43.5t52 71.5l5 11h-24q-33 0 -41 30l-166 460
h129l107 -337q10 -31 16 -65h14q4 12 10.5 34t9.5 31l105 337h130z" />
    <glyph glyph-name="Amacron" unicode="&#x100;" horiz-adv-x="636" 
d="M464 778h-290v84h290v-84zM446 195h-256l-57 -195h-128l207 657q9 33 45 33h122q36 0 45 -33l207 -657h-128zM416 298l-69 238q-14 54 -15 59h-27l-16 -59l-69 -238h196z" />
    <glyph glyph-name="amacron" unicode="&#x101;" horiz-adv-x="558" 
d="M420 598h-291v84h291v-84zM77 394l-12 86q129 24 245 24q95 0 139.5 -38t44.5 -133v-333h-96l-13 75q-77 -86 -187 -86q-69 0 -112 37.5t-43 104.5v50q0 59 38 91t107 32h184v30q-1 42 -19 56t-71 14q-77 0 -205 -10zM164 166v-19q0 -60 64 -60q73 0 144 58v76h-156
q-29 -1 -40.5 -15t-11.5 -40z" />
    <glyph glyph-name="Abreve" unicode="&#x102;" horiz-adv-x="636" 
d="M417 892l59 -8q6 -62 -37 -102.5t-120 -40.5q-78 0 -121.5 40.5t-37.5 102.5l59 8q0 -66 100 -66q98 0 98 66zM446 195h-256l-57 -195h-128l207 657q9 33 45 33h122q36 0 45 -33l207 -657h-128zM416 298l-69 238q-14 54 -15 59h-27l-16 -59l-69 -238h196z" />
    <glyph glyph-name="abreve" unicode="&#x103;" horiz-adv-x="558" 
d="M373 712l59 -8q6 -62 -37.5 -102.5t-120.5 -40.5t-121 40.5t-37 102.5l59 8q0 -67 100 -67q98 0 98 67zM77 394l-12 86q129 24 245 24q95 0 139.5 -38t44.5 -133v-333h-96l-13 75q-77 -86 -187 -86q-69 0 -112 37.5t-43 104.5v50q0 59 38 91t107 32h184v30q-1 42 -19 56
t-71 14q-77 0 -205 -10zM164 166v-19q0 -60 64 -60q73 0 144 58v76h-156q-29 -1 -40.5 -15t-11.5 -40z" />
    <glyph glyph-name="Aogonek" unicode="&#x104;" horiz-adv-x="636" 
d="M634 -145l13 -48q-69 -27 -109 -19.5t-54 35t-1 63.5q20 59 95 114h-75l-57 195h-256l-57 -195h-128l207 657q9 33 45 33h122q36 0 45 -33l207 -657q-48 -61 -66 -106q-14 -32 6.5 -42.5t62.5 3.5zM416 298l-69 238q-14 54 -15 59h-27l-16 -59l-69 -238h196z" />
    <glyph glyph-name="aogonek" unicode="&#x105;" horiz-adv-x="558" 
d="M497 -145l13 -48q-69 -27 -109.5 -19.5t-54.5 35t-1 63.5q19 58 96 114h-43l-13 75q-77 -86 -187 -86q-69 0 -112 37.5t-43 104.5v50q0 59 38 91t107 32h184v30q-1 42 -19 56t-71 14q-77 0 -205 -10l-12 86q129 24 245 24q95 0 139.5 -38t44.5 -133v-333
q-46 -57 -66 -106q-14 -32 6.5 -42.5t62.5 3.5zM164 166v-19q0 -60 64 -60q73 0 144 58v76h-156q-29 -1 -40.5 -15t-11.5 -40z" />
    <glyph glyph-name="Cacute" unicode="&#x106;" horiz-adv-x="578" 
d="M498 836l-213 -112l-38 54l188 148zM535 108l11 -94q-83 -26 -212 -26q-155 0 -218 80t-63 277t63 277t218 80q116 0 198 -22l-12 -95q-87 7 -186 7q-86 0 -117.5 -52.5t-31.5 -194.5t31.5 -194.5t117.5 -52.5q127 0 201 10z" />
    <glyph glyph-name="cacute" unicode="&#x107;" horiz-adv-x="498" 
d="M444 656l-213 -112l-38 54l188 147zM454 98l11 -80q-73 -30 -180 -30q-131 0 -185 58t-54 200t54.5 200t185.5 58q103 0 171 -28l-14 -76q-49 2 -136 2q-76 0 -105 -33t-29 -123q0 -91 29 -124.5t105 -33.5q79 0 147 10z" />
    <glyph glyph-name="Cdotaccent" unicode="&#x10a;" horiz-adv-x="578" 
d="M304 876h38q35 0 35 -35v-54q0 -34 -35 -34h-38q-34 0 -34 34v54q0 35 34 35zM535 108l11 -94q-83 -26 -212 -26q-155 0 -218 80t-63 277t63 277t218 80q116 0 198 -22l-12 -95q-87 7 -186 7q-86 0 -117.5 -52.5t-31.5 -194.5t31.5 -194.5t117.5 -52.5q127 0 201 10z" />
    <glyph glyph-name="cdotaccent" unicode="&#x10b;" horiz-adv-x="498" 
d="M251 696h37q35 0 35 -35v-54q0 -34 -35 -34h-37q-35 0 -35 34v54q0 35 35 35zM454 98l11 -80q-73 -30 -180 -30q-131 0 -185 58t-54 200t54.5 200t185.5 58q103 0 171 -28l-14 -76q-49 2 -136 2q-76 0 -105 -33t-29 -123q0 -91 29 -124.5t105 -33.5q79 0 147 10z" />
    <glyph glyph-name="Ccaron" unicode="&#x10c;" horiz-adv-x="578" 
d="M498 872l-148 -131h-52l-148 131l37 50l133 -81h8l132 81zM535 108l11 -94q-83 -26 -212 -26q-155 0 -218 80t-63 277t63 277t218 80q116 0 198 -22l-12 -95q-87 7 -186 7q-86 0 -117.5 -52.5t-31.5 -194.5t31.5 -194.5t117.5 -52.5q127 0 201 10z" />
    <glyph glyph-name="ccaron" unicode="&#x10d;" horiz-adv-x="498" 
d="M445 691l-149 -131h-52l-148 131l37 51l133 -82h8l132 82zM454 98l11 -80q-73 -30 -180 -30q-131 0 -185 58t-54 200t54.5 200t185.5 58q103 0 171 -28l-14 -76q-49 2 -136 2q-76 0 -105 -33t-29 -123q0 -91 29 -124.5t105 -33.5q79 0 147 10z" />
    <glyph glyph-name="Dcaron" unicode="&#x10e;" horiz-adv-x="671" 
d="M295 741l-148 131l37 50l133 -81h8l132 81l39 -50l-149 -131h-52zM77 0v690q137 9 258 9q157 0 219.5 -77t62.5 -277t-62.5 -277t-219.5 -77q-121 0 -258 9zM202 594v-496q78 -2 133 -2q86 0 118 53.5t32 195.5q0 143 -32.5 196.5t-117.5 53.5q-27 0 -70.5 -0.5
t-62.5 -0.5z" />
    <glyph glyph-name="dcaron" unicode="&#x10f;" horiz-adv-x="583" 
d="M666 670v-48q0 -68 -39 -127l-49 12q11 43 11 93q-30 0 -30 28v42q2 18 10.5 25t30.5 7h29q21 0 29.5 -7t7.5 -25zM393 700h122v-700h-96l-10 67q-85 -79 -190 -79q-90 0 -131 65.5t-41 194.5q0 141 45.5 198.5t142.5 57.5q94 0 163 -43q-5 40 -5 98v141zM393 142v243
q-80 20 -122 20q-57 0 -78 -30.5t-21 -125.5q0 -93 20.5 -125.5t71.5 -32.5q34 0 59 10.5t70 40.5z" />
    <glyph glyph-name="Dcroat" unicode="&#x110;" horiz-adv-x="675" 
d="M81 397v293q137 9 258 9q157 0 219.5 -76.5t62.5 -277.5t-62.5 -277.5t-219.5 -76.5q-121 0 -258 9v331h-62v66h62zM207 331v-233q76 -2 132 -2q86 0 118 53.5t32 195.5q0 143 -32.5 196.5t-117.5 53.5q-26 0 -70 -0.5t-62 -0.5v-197h134v-66h-134z" />
    <glyph glyph-name="dcroat" unicode="&#x111;" horiz-adv-x="579" 
d="M578 564h-63v-564h-96l-10 67q-85 -79 -190 -79q-90 0 -131 65.5t-41 194.5q0 141 45.5 198.5t142.5 57.5q94 0 163 -43q-5 40 -5 98v5h-140v64h140v72h122v-72h63v-64zM393 142v243q-80 20 -122 20q-57 0 -78 -30.5t-21 -125.5q0 -93 20.5 -125.5t71.5 -32.5
q34 0 59 10.5t70 40.5z" />
    <glyph glyph-name="Emacron" unicode="&#x112;" 
d="M457 795h-290v84h290v-84zM517 101l6 -95q-91 -8 -304 -8q-68 0 -107.5 35t-40.5 96v432q1 61 40.5 96t107.5 35q213 0 304 -8l-6 -96h-270q-27 0 -38.5 -13t-11.5 -45v-121h283v-96h-283v-154q0 -32 11.5 -45t38.5 -13h270z" />
    <glyph glyph-name="emacron" unicode="&#x113;" horiz-adv-x="548" 
d="M431 598h-291v84h291v-84zM375 194h-200q7 -64 36 -85.5t95 -21.5q75 0 176 12l11 -78q-69 -33 -202 -33t-189 59t-56 199q0 143 55 200.5t182 57.5q117 0 170 -42.5t53 -127.5q0 -140 -131 -140zM173 279h168q44 0 44 57q0 40 -21 56t-76 16q-64 0 -88.5 -26.5
t-26.5 -102.5z" />
    <glyph glyph-name="Edotaccent" unicode="&#x116;" 
d="M331 769h-38q-35 0 -35 35v54q0 34 35 34h38q34 0 34 -34v-54q0 -35 -34 -35zM517 101l6 -95q-91 -8 -304 -8q-68 0 -107.5 35t-40.5 96v432q1 61 40.5 96t107.5 35q213 0 304 -8l-6 -96h-270q-27 0 -38.5 -13t-11.5 -45v-121h283v-96h-283v-154q0 -32 11.5 -45t38.5 -13
h270z" />
    <glyph glyph-name="edotaccent" unicode="&#x117;" horiz-adv-x="548" 
d="M304 573h-38q-34 0 -34 34v54q0 35 34 35h38q35 0 35 -35v-54q0 -34 -35 -34zM375 194h-200q7 -64 36 -85.5t95 -21.5q75 0 176 12l11 -78q-69 -33 -202 -33t-189 59t-56 199q0 143 55 200.5t182 57.5q117 0 170 -42.5t53 -127.5q0 -140 -131 -140zM173 279h168
q44 0 44 57q0 40 -21 56t-76 16q-64 0 -88.5 -26.5t-26.5 -102.5z" />
    <glyph glyph-name="Eogonek" unicode="&#x118;" 
d="M526 -139l13 -47q-69 -27 -109.5 -20t-54.5 34.5t-1 64.5q19 55 90 109q-78 -4 -245 -4q-68 0 -107.5 35t-40.5 96v432q1 61 40.5 96t107.5 35q213 0 304 -8l-6 -96h-270q-27 0 -38.5 -13t-11.5 -45v-121h283v-96h-283v-154q0 -32 11.5 -45t38.5 -13h270l6 -95
q-46 -57 -66 -106q-14 -31 6.5 -41.5t62.5 2.5z" />
    <glyph glyph-name="eogonek" unicode="&#x119;" horiz-adv-x="548" 
d="M497 -124l12 -48q-69 -27 -109 -19.5t-54 35t-1 63.5q15 46 66 91q-59 -10 -120 -10q-133 0 -189 59t-56 199q0 143 55 200.5t182 57.5q117 0 170 -42.5t53 -127.5q0 -140 -131 -140h-200q7 -64 36 -85.5t95 -21.5q75 0 176 12l11 -78q-48 -61 -66 -106q-14 -32 7 -42.5
t63 3.5zM173 279h168q44 0 44 57q0 40 -21 56t-76 16q-64 0 -88.5 -26.5t-26.5 -102.5z" />
    <glyph glyph-name="Ecaron" unicode="&#x11a;" 
d="M286 757l-147 131l37 50l132 -81h8l133 81l38 -50l-148 -131h-53zM517 101l6 -95q-91 -8 -304 -8q-68 0 -107.5 35t-40.5 96v432q1 61 40.5 96t107.5 35q213 0 304 -8l-6 -96h-270q-27 0 -38.5 -13t-11.5 -45v-121h283v-96h-283v-154q0 -32 11.5 -45t38.5 -13h270z" />
    <glyph glyph-name="ecaron" unicode="&#x11b;" horiz-adv-x="548" 
d="M260 560l-148 131l37 51l133 -82h8l132 82l38 -51l-148 -131h-52zM375 194h-200q7 -64 36 -85.5t95 -21.5q75 0 176 12l11 -78q-69 -33 -202 -33t-189 59t-56 199q0 143 55 200.5t182 57.5q117 0 170 -42.5t53 -127.5q0 -140 -131 -140zM173 279h168q44 0 44 57
q0 40 -21 56t-76 16q-64 0 -88.5 -26.5t-26.5 -102.5z" />
    <glyph glyph-name="Gbreve" unicode="&#x11e;" horiz-adv-x="635" 
d="M430 892l60 -8q6 -62 -37.5 -102.5t-120.5 -40.5t-121 40.5t-38 102.5l59 8q0 -66 100 -66q48 0 73.5 17t24.5 49zM576 398v-398h-93l-11 68q-86 -81 -202 -81q-114 0 -165 86.5t-51 274.5q0 204 66 279.5t236 75.5q115 0 198 -23l-10 -93q-98 6 -182 6q-54 0 -84 -7.5
t-53 -34t-31.5 -76t-8.5 -134.5q0 -139 27 -192.5t97 -53.5q67 0 145 48v255h122z" />
    <glyph glyph-name="gbreve" unicode="&#x11f;" 
d="M374 712l59 -8q6 -62 -37.5 -102.5t-119.5 -40.5q-78 0 -121.5 40.5t-37.5 102.5l59 8q0 -67 100 -67q98 0 98 67zM545 431l-64 -7q13 -32 13 -78q0 -85 -49 -121.5t-172 -36.5q-54 0 -90 7q-12 -18 -5 -40.5t34 -25.5l179 -25q72 -10 103.5 -44t31.5 -99
q0 -90 -53.5 -123.5t-193.5 -33.5q-142 0 -195 32.5t-53 117.5q0 38 18 62t59 46q-33 31 -27.5 79.5t40.5 71.5q-69 33 -69 132q0 87 49 123t173 36q73 0 123 -14h155zM273 273q62 0 85.5 16t23.5 57t-23.5 56.5t-85.5 15.5t-86 -15.5t-24 -56.5t24 -57t86 -16zM326 19
l-140 17q-38 -35 -38 -69q0 -43 24.5 -54.5t105.5 -11.5t106 12t25 53q0 30 -15 38.5t-68 14.5z" />
    <glyph glyph-name="Gdotaccent" unicode="&#x120;" horiz-adv-x="635" 
d="M351 753h-38q-35 0 -35 34v54q0 35 35 35h38q35 0 35 -35v-54q0 -34 -35 -34zM576 398v-398h-93l-11 68q-86 -81 -202 -81q-114 0 -165 86.5t-51 274.5q0 204 66 279.5t236 75.5q115 0 198 -23l-10 -93q-98 6 -182 6q-54 0 -84 -7.5t-53 -34t-31.5 -76t-8.5 -134.5
q0 -139 27 -192.5t97 -53.5q67 0 145 48v255h122z" />
    <glyph glyph-name="gdotaccent" unicode="&#x121;" 
d="M295 573h-38q-35 0 -35 34v54q0 35 35 35h38q34 0 34 -35v-54q0 -34 -34 -34zM545 431l-64 -7q13 -32 13 -78q0 -85 -49 -121.5t-172 -36.5q-54 0 -90 7q-12 -18 -5 -40.5t34 -25.5l179 -25q72 -10 103.5 -44t31.5 -99q0 -90 -53.5 -123.5t-193.5 -33.5q-142 0 -195 32.5
t-53 117.5q0 38 18 62t59 46q-33 31 -27.5 79.5t40.5 71.5q-69 33 -69 132q0 87 49 123t173 36q73 0 123 -14h155zM273 273q62 0 85.5 16t23.5 57t-23.5 56.5t-85.5 15.5t-86 -15.5t-24 -56.5t24 -57t86 -16zM326 19l-140 17q-38 -35 -38 -69q0 -43 24.5 -54.5t105.5 -11.5
t106 12t25 53q0 30 -15 38.5t-68 14.5z" />
    <glyph glyph-name="Gcommaaccent" unicode="&#x122;" horiz-adv-x="635" 
d="M576 398v-398h-93l-11 68q-86 -81 -202 -81q-114 0 -165 86.5t-51 274.5q0 204 66 279.5t236 75.5q115 0 198 -23l-10 -93q-98 6 -182 6q-54 0 -84 -7.5t-53 -34t-31.5 -76t-8.5 -134.5q0 -139 27 -192.5t97 -53.5q67 0 145 48v255h122zM315 -55h30q22 0 30 -8t8 -28v-53
q-1 -79 -40 -141l-50 13q12 51 12 103q-31 0 -31 32v46q1 20 10.5 28t30.5 8z" />
    <glyph glyph-name="gcommaaccent" unicode="&#x123;" 
d="M304 554h-29q-22 0 -30.5 7.5t-8.5 27.5v53q1 77 40 141l50 -13q-12 -51 -12 -103q31 0 31 -31v-47q-2 -20 -10.5 -27.5t-30.5 -7.5zM545 431l-64 -7q13 -32 13 -78q0 -85 -49 -121.5t-172 -36.5q-54 0 -90 7q-12 -18 -5 -40.5t34 -25.5l179 -25q72 -10 103.5 -44
t31.5 -99q0 -90 -53.5 -123.5t-193.5 -33.5q-142 0 -195 32.5t-53 117.5q0 38 18 62t59 46q-33 31 -27.5 79.5t40.5 71.5q-69 33 -69 132q0 87 49 123t173 36q73 0 123 -14h155zM273 273q62 0 85.5 16t23.5 57t-23.5 56.5t-85.5 15.5t-86 -15.5t-24 -56.5t24 -57t86 -16z
M326 19l-140 17q-38 -35 -38 -69q0 -43 24.5 -54.5t105.5 -11.5t106 12t25 53q0 30 -15 38.5t-68 14.5z" />
    <glyph glyph-name="Hbar" unicode="&#x126;" horiz-adv-x="685" 
d="M668 516h-64v-516h-125v316h-273v-316h-125v516h-65v62h65v112h125v-112h273v112h125v-112h64v-62zM479 516h-273v-97h273v97z" />
    <glyph glyph-name="hbar" unicode="&#x127;" horiz-adv-x="594" 
d="M195 564v-44q0 -43 -8 -99q109 83 207 83q65 0 100 -35t35 -101v-368h-122v331q0 41 -11.5 55.5t-41.5 14.5q-57 0 -160 -60v-341h-122v564h-70v64h70v72h122v-72h133v-64h-132z" />
    <glyph glyph-name="Imacron" unicode="&#x12a;" horiz-adv-x="279" 
d="M286 778h-291v84h291v-84zM202 0h-125v690h125v-690z" />
    <glyph glyph-name="imacron" unicode="&#x12b;" horiz-adv-x="266" 
d="M279 598h-290v84h290v-84zM194 0h-122v490h122v-490z" />
    <glyph glyph-name="Iogonek" unicode="&#x12e;" horiz-adv-x="279" 
d="M190 -145l13 -48q-69 -27 -109.5 -19.5t-54.5 35t0 63.5q17 57 95 114h-57v690h125v-690h-15q-48 -61 -66 -106q-14 -32 6.5 -42.5t62.5 3.5z" />
    <glyph glyph-name="iogonek" unicode="&#x12f;" horiz-adv-x="266" 
d="M153 573h-38q-35 0 -35 34v54q0 35 35 35h38q35 0 35 -35v-54q0 -34 -35 -34zM186 -145l13 -48q-69 -27 -109 -19.5t-54 35t-1 63.5q20 59 95 114h-58v490h122v-490h-11q-48 -61 -66 -106q-14 -32 6.5 -42.5t62.5 3.5z" />
    <glyph glyph-name="Idotaccent" unicode="&#x130;" horiz-adv-x="279" 
d="M121 876h38q35 0 35 -35v-54q0 -34 -35 -34h-38q-34 0 -34 34v54q0 35 34 35zM202 0h-125v690h125v-690z" />
    <glyph glyph-name="dotlessi" unicode="&#x131;" horiz-adv-x="266" 
d="M194 0h-122v490h122v-490z" />
    <glyph glyph-name="IJ" unicode="&#x132;" horiz-adv-x="633" 
d="M202 0h-125v690h125v-690zM559 690v-538q0 -78 -37.5 -120.5t-106.5 -42.5t-111 17l14 87h47q69 0 69 62v535h125z" />
    <glyph glyph-name="ij" unicode="&#x133;" horiz-adv-x="532" 
d="M371 704h56q35 0 35 -35v-54q0 -35 -35 -35h-56q-35 0 -35 35v54q0 35 35 35zM104 703h56q35 0 35 -35v-55q0 -35 -35 -35h-56q-35 0 -35 35v55q0 35 35 35zM193 0h-121v490h121v-490zM459 490v-481q0 -65 -29.5 -121t-81.5 -88l-68 53q58 69 58 156v481h121z" />
    <glyph glyph-name="Kcommaaccent" unicode="&#x136;" horiz-adv-x="612" 
d="M601 0h-140l-198 311h-68q7 -32 7 -68v-243h-125v690h125v-203q0 -44 -7 -80h68l189 283h136l-186 -278q-17 -27 -46 -52v-3q35 -29 54 -59zM308 -55h29q22 0 30.5 -8t8.5 -28v-53q-1 -77 -40 -141l-50 13q12 51 12 103q-31 0 -31 32v46q2 20 10.5 28t30.5 8z" />
    <glyph glyph-name="kcommaaccent" unicode="&#x137;" horiz-adv-x="534" 
d="M525 0h-138l-149 234h-54q6 -52 6 -75v-159h-122v700h123v-298q0 -47 -7 -86h53l134 174h138l-137 -174q-16 -25 -41 -41v-2q20 -13 41 -47zM271 -54h30q22 0 30 -8t8 -28v-53q-1 -78 -40 -141l-50 13q12 53 12 104q-31 0 -31 31v46q1 20 10.5 28t30.5 8z" />
    <glyph glyph-name="Lacute" unicode="&#x139;" horiz-adv-x="521" 
d="M315 836l-212 -112l-38 54l188 148zM200 690v-529q0 -32 13 -44.5t46 -12.5h240l5 -97q-98 -9 -274 -9q-155 0 -155 143v549h125z" />
    <glyph glyph-name="lacute" unicode="&#x13a;" horiz-adv-x="314" 
d="M308 855l-213 -112l-38 54l188 147zM191 700v-547q-1 -29 13.5 -43t44.5 -14h42l14 -90q-34 -17 -104 -17q-61 0 -96.5 35t-35.5 99v577h122z" />
    <glyph glyph-name="Lcommaaccent" unicode="&#x13b;" horiz-adv-x="521" 
d="M200 690v-529q0 -32 13 -44.5t46 -12.5h240l5 -97q-98 -9 -274 -9q-155 0 -155 143v549h125zM280 -55h29q22 0 30.5 -8t8.5 -28v-53q-1 -77 -40 -141l-50 13q12 51 12 103q-31 0 -31 32v46q2 20 10.5 28t30.5 8z" />
    <glyph glyph-name="lcommaaccent" unicode="&#x13c;" horiz-adv-x="314" 
d="M191 700v-547q-1 -29 13.5 -43t44.5 -14h42l14 -90q-34 -17 -104 -17q-61 0 -96.5 35t-35.5 99v577h122zM163 -55h29q22 0 30.5 -8t8.5 -28v-53q-1 -77 -40 -141l-50 13q12 51 12 103q-31 0 -31 32v46q1 20 10.5 28t30.5 8z" />
    <glyph glyph-name="Lcaron" unicode="&#x13d;" horiz-adv-x="521" 
d="M340 691h30q22 0 30 -8t8 -28v-53q0 -76 -40 -140l-50 12q12 52 12 104q-31 0 -31 31v46q1 20 10.5 28t30.5 8zM200 690v-529q0 -32 13 -44.5t46 -12.5h240l5 -97q-98 -9 -274 -9q-155 0 -155 143v549h125z" />
    <glyph glyph-name="lcaron" unicode="&#x13e;" horiz-adv-x="314" 
d="M275 702h29q22 0 30 -7t9 -25v-48q-1 -69 -40 -127l-49 12q11 43 11 93q-30 0 -30 28v42q1 18 10 25t30 7zM191 700v-547q-1 -29 13.5 -43t44.5 -14h42l14 -90q-34 -17 -104 -17q-61 0 -96.5 35t-35.5 99v577h122z" />
    <glyph glyph-name="Ldot" unicode="&#x13f;" horiz-adv-x="521" 
d="M200 690v-529q0 -32 13 -44.5t46 -12.5h240l5 -97q-98 -9 -274 -9q-155 0 -155 143v549h125zM421 341h-38q-35 0 -35 35v54q0 34 35 34h38q35 0 35 -34v-54q0 -35 -35 -35z" />
    <glyph glyph-name="ldot" unicode="&#x140;" horiz-adv-x="351" 
d="M191 700v-547q-1 -29 13.5 -43t44.5 -14h42l14 -90q-34 -17 -104 -17q-61 0 -96.5 35t-35.5 99v577h122zM323 328h-38q-35 0 -35 35v54q0 34 35 34h38q34 0 34 -34v-54q0 -35 -34 -35z" />
    <glyph glyph-name="Lslash" unicode="&#x141;" horiz-adv-x="528" 
d="M505 104l5 -97q-98 -9 -273 -9q-156 0 -156 143v180l-64 -26v72l64 26v297h125v-246l110 45v-72l-110 -45v-211q0 -32 13 -44.5t46 -12.5h240z" />
    <glyph glyph-name="lslash" unicode="&#x142;" horiz-adv-x="344" 
d="M313 96l14 -90q-34 -17 -104 -17q-61 0 -96.5 35t-35.5 99v196l-76 -31v72l76 31v309h121v-259l102 41v-73l-102 -41v-215q0 -57 59 -57h42z" />
    <glyph glyph-name="Nacute" unicode="&#x143;" horiz-adv-x="715" 
d="M538 836l-212 -112l-38 54l188 148zM638 690v-644q0 -46 -46 -46h-99q-36 0 -52 38l-194 423q-35 75 -41 103h-12q6 -42 6 -104v-460h-123v644q0 46 47 46h97q20 0 31.5 -9t20.5 -29l188 -411q3 -7 21 -47t27 -62h12q-5 63 -5 112v446h122z" />
    <glyph glyph-name="nacute" unicode="&#x144;" horiz-adv-x="590" 
d="M264 544l-38 54l188 147l62 -89zM170 490l8 -72q114 86 212 86q65 0 100 -35t35 -101v-368h-122v331q0 41 -11 55.5t-41 14.5q-34 0 -69.5 -14t-91.5 -46v-341h-122v490h102z" />
    <glyph glyph-name="Ncommaaccent" unicode="&#x145;" horiz-adv-x="715" 
d="M638 690v-644q0 -46 -46 -46h-99q-36 0 -52 38l-194 423q-35 75 -41 103h-12q6 -42 6 -104v-460h-123v644q0 46 47 46h97q20 0 31.5 -9t20.5 -29l188 -411q3 -7 21 -47t27 -62h12q-5 63 -5 112v446h122zM334 -55h29q22 0 30.5 -8t8.5 -28v-53q-1 -78 -41 -141l-49 13
q11 47 11 103q-30 0 -30 32v46q2 20 10.5 28t30.5 8z" />
    <glyph glyph-name="ncommaaccent" unicode="&#x146;" horiz-adv-x="590" 
d="M170 490l8 -72q114 86 212 86q65 0 100 -35t35 -101v-368h-122v331q0 41 -11 55.5t-41 14.5q-34 0 -69.5 -14t-91.5 -46v-341h-122v490h102zM278 -54h29q22 0 30.5 -8t8.5 -28v-53q-1 -75 -40 -141l-50 13q12 53 12 104q-31 0 -31 31v46q1 20 10.5 28t30.5 8z" />
    <glyph glyph-name="Ncaron" unicode="&#x147;" horiz-adv-x="715" 
d="M539 872l-148 -131h-53l-147 131l37 50l133 -81h8l132 81zM638 690v-644q0 -46 -46 -46h-99q-36 0 -52 38l-194 423q-35 75 -41 103h-12q6 -42 6 -104v-460h-123v644q0 46 47 46h97q20 0 31.5 -9t20.5 -29l188 -411q3 -7 21 -47t27 -62h12q-5 63 -5 112v446h122z" />
    <glyph glyph-name="ncaron" unicode="&#x148;" horiz-adv-x="590" 
d="M276 560l-147 131l37 51l133 -82h8l132 82l38 -51l-148 -131h-53zM170 490l8 -72q114 86 212 86q65 0 100 -35t35 -101v-368h-122v331q0 41 -11 55.5t-41 14.5q-34 0 -69.5 -14t-91.5 -46v-341h-122v490h102z" />
    <glyph glyph-name="Eng" unicode="&#x14a;" horiz-adv-x="715" 
d="M638 690v-756q0 -69 -38.5 -108.5t-101.5 -38.5q-61 0 -104 17l13 79h45q71 0 71 61v57h-32q-13 0 -32 33l-213 410q-18 36 -42 102h-10q6 -41 6 -103v-443h-123v644q0 46 47 46h78q20 0 31.5 -8.5t21.5 -29.5l205 -394q19 -37 48 -108h12q-5 60 -5 109v431h123z" />
    <glyph glyph-name="eng" unicode="&#x14b;" horiz-adv-x="590" 
d="M163 490l10 -76q111 90 216 90q136 0 136 -136v-423q0 -71 -34.5 -109.5t-98.5 -37.5q-65 0 -105 17l14 77h40q62 0 62 63v376q0 36 -11.5 49.5t-43.5 13.5q-57 0 -158 -54v-340h-122v490h95z" />
    <glyph glyph-name="Omacron" unicode="&#x14c;" horiz-adv-x="675" 
d="M482 778h-291v84h291v-84zM337 703q160 0 222.5 -77t62.5 -281t-62.5 -281t-222.5 -77q-159 0 -221.5 77t-62.5 281t62.5 281t221.5 77zM337 596q-87 0 -119.5 -53.5t-32.5 -197.5t32.5 -197.5t119.5 -53.5q88 0 120.5 53.5t32.5 197.5t-32.5 197.5t-120.5 53.5z" />
    <glyph glyph-name="omacron" unicode="&#x14d;" horiz-adv-x="576" 
d="M434 598h-291v84h291v-84zM289 504q132 0 186.5 -59t54.5 -200t-54.5 -199.5t-186.5 -58.5q-133 0 -188 58.5t-55 199.5t55 200t188 59zM289 407q-68 0 -92 -33.5t-24 -128.5q0 -94 24 -127.5t92 -33.5q66 0 90.5 33.5t24.5 127.5q0 95 -24.5 128.5t-90.5 33.5z" />
    <glyph glyph-name="Ohungarumlaut" unicode="&#x150;" horiz-adv-x="675" 
d="M380 880l-145 -163l-51 39l112 182zM558 880l-145 -163l-49 39l110 182zM337 703q160 0 222.5 -77t62.5 -281t-62.5 -281t-222.5 -77q-159 0 -221.5 77t-62.5 281t62.5 281t221.5 77zM337 596q-87 0 -119.5 -53.5t-32.5 -197.5t32.5 -197.5t119.5 -53.5q88 0 120.5 53.5
t32.5 197.5t-32.5 197.5t-120.5 53.5z" />
    <glyph glyph-name="ohungarumlaut" unicode="&#x151;" horiz-adv-x="576" 
d="M331 700l-144 -164l-51 40l111 181zM510 700l-145 -164l-50 39l111 182zM289 504q132 0 186.5 -59t54.5 -200t-54.5 -199.5t-186.5 -58.5q-133 0 -188 58.5t-55 199.5t55 200t188 59zM289 407q-68 0 -92 -33.5t-24 -128.5q0 -94 24 -127.5t92 -33.5q66 0 90.5 33.5
t24.5 127.5q0 95 -24.5 128.5t-90.5 33.5z" />
    <glyph glyph-name="OE" unicode="&#x152;" horiz-adv-x="930" 
d="M879 101l6 -95q-94 -8 -312 -8q-41 0 -72 22q-69 -33 -164 -33q-159 0 -221.5 77t-62.5 281t62.5 281t221.5 77q93 0 172 -30q33 19 73 19q212 0 303 -8l-6 -96h-251q-32 0 -45 -13t-13 -45v-120h272v-97h-272v-154q0 -32 13 -45t45 -13h251zM444 141v408q0 20 4 35
q-51 12 -111 12q-87 0 -119.5 -53t-32.5 -198q0 -144 32.5 -197.5t119.5 -53.5q67 0 110 12q-3 16 -3 35z" />
    <glyph glyph-name="oe" unicode="&#x153;" horiz-adv-x="903" 
d="M701 199h-171q6 -68 35 -90t98 -22q73 0 174 12l11 -78q-70 -33 -202 -33q-125 0 -179 50q-57 -51 -179 -51q-132 0 -187 58.5t-55 199.5t55 200t187 59q122 0 176 -50q52 49 168 49q229 0 229 -158q0 -83 -36 -114.5t-124 -31.5zM528 280h159q32 0 43.5 14.5t10.5 52.5
q-3 31 -27.5 45.5t-78.5 14.5q-58 0 -81.5 -27t-25.5 -100zM288 84q63 0 87.5 28.5t27.5 106.5l-1 29q0 5 0.5 13.5t0.5 12.5q-3 77 -28 105t-87 28q-67 0 -91 -33.5t-24 -128.5q0 -94 24 -127.5t91 -33.5z" />
    <glyph glyph-name="Racute" unicode="&#x154;" horiz-adv-x="629" 
d="M270 724l-38 54l188 148l62 -90zM593 0h-133l-55 214q-19 62 -80 62l-124 1v-277h-124v690q89 9 251 9q131 0 185.5 -43.5t54.5 -158.5q0 -80 -30 -122.5t-99 -51.5v-5q30 -7 56 -32t36 -70zM201 379h124q67 1 91.5 24t24.5 86t-24.5 85t-91.5 22h-124v-217z" />
    <glyph glyph-name="racute" unicode="&#x155;" horiz-adv-x="413" 
d="M194 544l-37 54l187 147l63 -89zM163 490l11 -72q105 86 202 86h24l-13 -114h-35q-52 0 -162 -44v-346h-122v490h95z" />
    <glyph glyph-name="Rcommaaccent" unicode="&#x156;" horiz-adv-x="629" 
d="M593 0h-133l-55 214q-19 62 -80 62l-124 1v-277h-124v690q89 9 251 9q131 0 185.5 -43.5t54.5 -158.5q0 -80 -30 -122.5t-99 -51.5v-5q30 -7 56 -32t36 -70zM201 379h124q67 1 91.5 24t24.5 86t-24.5 85t-91.5 22h-124v-217zM316 -55h30q22 0 30 -8t9 -28v-53
q-1 -78 -41 -141l-50 13q12 45 12 103q-32 0 -30 32v46q1 20 10 28t30 8z" />
    <glyph glyph-name="rcommaaccent" unicode="&#x157;" horiz-adv-x="413" 
d="M400 504l-13 -114h-35q-52 0 -162 -44v-346h-122v490h95l11 -72q105 86 202 86h24zM105 -54h30q22 0 30 -8t9 -28v-53q-1 -76 -41 -141l-50 13q12 47 12 104q-32 0 -30 31v46q1 20 10 28t30 8z" />
    <glyph glyph-name="Rcaron" unicode="&#x158;" horiz-adv-x="629" 
d="M282 741l-147 131l37 50l133 -81h8l132 81l38 -50l-148 -131h-53zM593 0h-133l-55 214q-19 62 -80 62l-124 1v-277h-124v690q89 9 251 9q131 0 185.5 -43.5t54.5 -158.5q0 -80 -30 -122.5t-99 -51.5v-5q30 -7 56 -32t36 -70zM201 379h124q67 1 91.5 24t24.5 86t-24.5 85
t-91.5 22h-124v-217z" />
    <glyph glyph-name="rcaron" unicode="&#x159;" horiz-adv-x="413" 
d="M207 560l-148 131l37 51l133 -82h8l132 82l39 -51l-148 -131h-53zM163 490l11 -72q105 86 202 86h24l-13 -114h-35q-52 0 -162 -44v-346h-122v490h95z" />
    <glyph glyph-name="Sacute" unicode="&#x15a;" horiz-adv-x="570" 
d="M457 836l-212 -112l-38 54l188 148zM326 273l-139 44q-75 24 -107 72.5t-32 127.5q0 113 52.5 149t184.5 36q127 0 217 -23l-8 -89q-114 4 -205 4q-69 0 -92 -13.5t-23 -65.5q0 -43 16.5 -60.5t60.5 -31.5l133 -41q79 -25 110.5 -73.5t31.5 -127.5q0 -114 -54 -153.5
t-191 -39.5q-114 0 -224 22l8 92q175 -4 219 -4q69 0 92 16t23 68q0 44 -15.5 61t-57.5 30z" />
    <glyph glyph-name="sacute" unicode="&#x15b;" horiz-adv-x="517" 
d="M437 656l-212 -112l-38 54l188 147zM287 186l-129 35q-64 18 -89.5 51t-25.5 93q0 79 45 109t155 30q120 -2 217 -18l-9 -84q-124 4 -187 4q-66 0 -85 -6.5t-19 -35.5q0 -7 1.5 -13l2.5 -10t5.5 -7.5t6.5 -5.5t10 -5t11 -4t14 -4t16 -4l132 -36q63 -18 90 -48.5t27 -92.5
q0 -86 -49 -115.5t-170 -29.5q-110 0 -205 16l8 85q52 -4 167 -4q79 0 105.5 9t26.5 38q0 6 -1 11t-3 9t-4 7t-7 6t-8 4.5t-10.5 4t-11 3.5t-13.5 4t-14 4z" />
    <glyph glyph-name="Scedilla" unicode="&#x15e;" horiz-adv-x="570" 
d="M326 273l-139 44q-75 24 -107 72.5t-32 127.5q0 113 52.5 149t184.5 36q127 0 217 -23l-8 -89q-114 4 -205 4q-69 0 -92 -13.5t-23 -65.5q0 -43 16.5 -60.5t60.5 -31.5l133 -41q79 -25 110.5 -73.5t31.5 -127.5q0 -114 -54 -153.5t-191 -39.5q-114 0 -224 22l8 92
q175 -4 219 -4q69 0 92 16t23 68q0 44 -15.5 61t-57.5 30zM224 -108l12 53q73 8 102.5 -4.5t28.5 -60.5q-2 -69 -54.5 -104.5t-130.5 -25.5l17 59q37 0 60.5 16t25.5 45q1 14 -11 18t-50 4z" />
    <glyph glyph-name="scedilla" unicode="&#x15f;" horiz-adv-x="517" 
d="M287 186l-129 35q-64 18 -89.5 51t-25.5 93q0 79 45 109t155 30q120 -2 217 -18l-9 -84q-124 4 -187 4q-66 0 -85 -6.5t-19 -35.5q0 -7 1.5 -13l2.5 -10t5.5 -7.5t6.5 -5.5t10 -5t11 -4t14 -4t16 -4l132 -36q63 -18 90 -48.5t27 -92.5q0 -86 -49 -115.5t-170 -29.5
q-110 0 -205 16l8 85q52 -4 167 -4q79 0 105.5 9t26.5 38q0 6 -1 11t-3 9t-4 7t-7 6t-8 4.5t-10.5 4t-11 3.5t-13.5 4t-14 4zM188 -105l12 53q73 8 102.5 -4.5t28.5 -60.5q-2 -69 -54.5 -104.5t-130.5 -24.5l17 59q37 -1 60.5 15t25.5 45q1 14 -10.5 18t-50.5 4z" />
    <glyph glyph-name="Scaron" unicode="&#x160;" horiz-adv-x="570" 
d="M458 872l-148 -131h-53l-147 131l37 50l133 -81h8l132 81zM326 273l-139 44q-75 24 -107 72.5t-32 127.5q0 113 52.5 149t184.5 36q127 0 217 -23l-8 -89q-114 4 -205 4q-69 0 -92 -13.5t-23 -65.5q0 -43 16.5 -60.5t60.5 -31.5l133 -41q79 -25 110.5 -73.5t31.5 -127.5
q0 -114 -54 -153.5t-191 -39.5q-114 0 -224 22l8 92q175 -4 219 -4q69 0 92 16t23 68q0 44 -15.5 61t-57.5 30z" />
    <glyph glyph-name="scaron" unicode="&#x161;" horiz-adv-x="517" 
d="M438 691l-148 -131h-53l-147 131l37 51l133 -82h8l132 82zM287 186l-129 35q-64 18 -89.5 51t-25.5 93q0 79 45 109t155 30q120 -2 217 -18l-9 -84q-124 4 -187 4q-66 0 -85 -6.5t-19 -35.5q0 -7 1.5 -13l2.5 -10t5.5 -7.5t6.5 -5.5t10 -5t11 -4t14 -4t16 -4l132 -36
q63 -18 90 -48.5t27 -92.5q0 -86 -49 -115.5t-170 -29.5q-110 0 -205 16l8 85q52 -4 167 -4q79 0 105.5 9t26.5 38q0 6 -1 11t-3 9t-4 7t-7 6t-8 4.5t-10.5 4t-11 3.5t-13.5 4t-14 4z" />
    <glyph glyph-name="Tcedilla" unicode="&#x162;" horiz-adv-x="592" 
d="M571 690v-107h-213v-583h-126v583h-211v107h550zM228 -96l12 53q73 8 102.5 -4.5t28.5 -60.5q-2 -69 -54.5 -104.5t-130.5 -24.5l17 59q37 -1 60.5 15t25.5 45q1 14 -10.5 18t-50.5 4z" />
    <glyph glyph-name="tcedilla" unicode="&#x163;" horiz-adv-x="400" 
d="M231 402v-249q0 -32 13 -44.5t46 -12.5h67l13 -90q-53 -17 -126 -17q-64 0 -98.5 37t-34.5 106v270h-89v83l88 5v141h121v-141h144v-88h-144zM160 -104l12 53q73 8 102.5 -4.5t28.5 -60.5q-2 -69 -54.5 -104.5t-131.5 -25.5l18 59q37 -1 60.5 15.5t24.5 45.5
q1 13 -10.5 17.5t-49.5 4.5z" />
    <glyph glyph-name="Tcaron" unicode="&#x164;" horiz-adv-x="592" 
d="M270 741l-148 131l37 50l133 -81h8l132 81l39 -50l-149 -131h-52zM571 583h-213v-583h-126v583h-211v107h550v-107z" />
    <glyph glyph-name="tcaron" unicode="&#x165;" horiz-adv-x="400" 
d="M346 554l-50 13q12 51 12 103q-31 0 -31 32v46q1 20 10.5 28t30.5 8h30q22 0 30 -8t8 -28v-53q-1 -79 -40 -141zM231 490h144v-88h-144v-249q0 -32 13 -44.5t46 -12.5h67l13 -90q-53 -17 -126 -17q-64 0 -98.5 37t-34.5 106v270h-89v83l88 5v141h121v-141z" />
    <glyph glyph-name="Tbar" unicode="&#x166;" horiz-adv-x="592" 
d="M359 583v-166h133v-65h-133v-352h-126v352h-134v65h134v166h-211v107h549v-107h-212z" />
    <glyph glyph-name="tbar" unicode="&#x167;" horiz-adv-x="400" 
d="M231 402v-82h116v-63h-116v-104q0 -32 13 -44.5t46 -12.5h67l13 -90q-53 -17 -126 -17q-64 0 -98.5 37t-34.5 106v125h-62v63h62v82h-89v83l88 5v141h121v-141h144v-88h-144z" />
    <glyph glyph-name="Umacron" unicode="&#x16a;" horiz-adv-x="671" 
d="M482 778h-291v84h291v-84zM599 690v-420q0 -155 -58 -219t-200 -64q-148 0 -208.5 64t-60.5 219v420h125v-420q0 -99 30.5 -137.5t108.5 -38.5q77 0 107 38.5t30 137.5v420h126z" />
    <glyph glyph-name="umacron" unicode="&#x16b;" horiz-adv-x="579" 
d="M438 604h-291v84h291v-84zM511 490v-490h-96l-9 66q-104 -79 -205 -79q-136 0 -136 136v367h122v-331q-1 -39 12 -54t48 -15q50 0 143 54v346h121z" />
    <glyph glyph-name="Uring" unicode="&#x16e;" horiz-adv-x="671" 
d="M337 934q46 0 79.5 -32t33.5 -79t-33 -78.5t-80 -31.5q-48 0 -81 31.5t-33 78.5t33 79t81 32zM337 878q-23 0 -38 -15t-15 -40q0 -24 15 -38.5t38 -14.5q22 0 37 14.5t15 38.5q0 25 -15 40t-37 15zM599 690v-420q0 -155 -58 -219t-200 -64q-148 0 -208.5 64t-60.5 219
v420h125v-420q0 -99 30.5 -137.5t108.5 -38.5q77 0 107 38.5t30 137.5v420h126z" />
    <glyph glyph-name="uring" unicode="&#x16f;" horiz-adv-x="579" 
d="M293 539q-48 0 -81 31.5t-33 78.5t33 79t81 32q46 0 79.5 -32t33.5 -79t-33 -78.5t-80 -31.5zM293 703q-23 0 -38 -15t-15 -39q0 -25 15 -39.5t38 -14.5q22 0 37 14.5t15 39.5q0 24 -15 39t-37 15zM511 490v-490h-96l-9 66q-104 -79 -205 -79q-136 0 -136 136v367h122
v-331q-1 -39 12 -54t48 -15q50 0 143 54v346h121z" />
    <glyph glyph-name="Uhungarumlaut" unicode="&#x170;" horiz-adv-x="671" 
d="M380 880l-145 -163l-51 39l112 182zM558 880l-145 -163l-49 39l110 182zM599 690v-420q0 -155 -58 -219t-200 -64q-148 0 -208.5 64t-60.5 219v420h125v-420q0 -99 30.5 -137.5t108.5 -38.5q77 0 107 38.5t30 137.5v420h126z" />
    <glyph glyph-name="uhungarumlaut" unicode="&#x171;" horiz-adv-x="579" 
d="M191 542l-51 39l112 182l84 -57zM320 581l110 182l84 -57l-145 -164zM390 490h121v-490h-96l-9 66q-104 -79 -205 -79q-136 0 -136 136v367h122v-331q-1 -39 12 -54t48 -15q50 0 143 54v346z" />
    <glyph glyph-name="Uogonek" unicode="&#x172;" horiz-adv-x="671" 
d="M599 690v-420q0 -145 -51 -210t-173 -72q-44 -57 -64 -103q-14 -32 7 -42.5t63 3.5l12 -48q-69 -27 -109 -19.5t-54 35t-1 63.5q17 55 90 110q-135 4 -191 69t-56 214v420h125v-420q0 -99 30.5 -137.5t108.5 -38.5q77 0 107 38.5t30 137.5v420h126z" />
    <glyph glyph-name="uogonek" unicode="&#x173;" horiz-adv-x="579" 
d="M517 -145l13 -48q-69 -27 -109.5 -19.5t-54.5 35t-1 63.5q19 58 96 114h-46l-9 66q-104 -79 -205 -79q-136 0 -136 136v367h122v-331q-1 -39 12 -54t48 -15q50 0 143 54v346h121v-490h3q-46 -57 -66 -106q-14 -32 6.5 -42.5t62.5 3.5z" />
    <glyph glyph-name="Wcircumflex" unicode="&#x174;" horiz-adv-x="961" 
d="M657 771l-39 -49l-133 96h-8l-134 -96l-37 51l131 131h88zM932 690l-119 -655q-4 -16 -16.5 -25.5t-29.5 -9.5h-131q-39 0 -46 36l-87 481q-5 27 -13 81h-20q-9 -58 -13 -81l-86 -481q-3 -16 -16 -26t-31 -10h-130q-17 0 -30 9.5t-16 25.5l-119 655h130l82 -503
q6 -34 11 -94h21q9 58 16 94l85 463q7 40 46 40h122q17 0 29.5 -11t15.5 -29l85 -464q10 -50 14 -93h22q2 14 5.5 45.5t5.5 46.5l83 505h130z" />
    <glyph glyph-name="wcircumflex" unicode="&#x175;" horiz-adv-x="834" 
d="M594 592l-39 -49l-133 96h-8l-134 -96l-37 50l131 131h88zM815 490l-129 -457q-8 -33 -43 -33h-103q-38 0 -45 38l-59 301q-2 11 -6 38t-7 42h-12l-14 -80l-57 -301q-3 -17 -16 -27.5t-30 -10.5h-101q-38 0 -44 33l-130 457h124l81 -337q10 -45 13 -78h13l15 78l60 301
q7 36 43 36h99q17 0 29 -10t15 -27l58 -300q2 -15 7.5 -42.5t7.5 -35.5h13q9 61 13 78l81 337h124z" />
    <glyph glyph-name="Ycircumflex" unicode="&#x176;" horiz-adv-x="589" 
d="M156 723l-37 50l131 132h88l131 -133l-38 -49l-133 96h-8zM357 233v-233h-125v235l-227 455h132l126 -268q7 -16 28 -83h8q21 67 28 83l126 268h130z" />
    <glyph glyph-name="ycircumflex" unicode="&#x177;" horiz-adv-x="546" 
d="M137 543l-37 50l132 131h87l132 -132l-39 -49l-133 96h-8zM533 490l-182 -505q-29 -83 -89 -138t-158 -50l-10 77q58 16 92 43.5t52 71.5l5 11h-24q-33 0 -41 30l-166 460h129l107 -337q10 -31 16 -65h14q4 12 10.5 34t9.5 31l105 337h130z" />
    <glyph glyph-name="Ydieresis" unicode="&#x178;" horiz-adv-x="589" 
d="M224 763h-40q-30 0 -30 30v55q0 31 30 31h40q30 0 30 -31v-55q0 -30 -30 -30zM403 763h-40q-30 0 -30 30v55q0 31 30 31h40q30 0 30 -31v-55q0 -30 -30 -30zM357 233v-233h-125v235l-227 455h132l126 -268q7 -16 28 -83h8q21 67 28 83l126 268h130z" />
    <glyph glyph-name="Zacute" unicode="&#x179;" horiz-adv-x="574" 
d="M253 724l-38 54l188 148l62 -90zM530 102v-102h-485v102l340 486h-334v102h472v-102l-340 -486h347z" />
    <glyph glyph-name="zacute" unicode="&#x17a;" horiz-adv-x="518" 
d="M222 544l-38 54l188 147l63 -89zM473 93v-93h-428v93l288 304h-284v93h420v-93l-288 -304h292z" />
    <glyph glyph-name="Zdotaccent" unicode="&#x17b;" horiz-adv-x="574" 
d="M310 753h-38q-35 0 -35 34v54q0 35 35 35h38q35 0 35 -35v-54q0 -34 -35 -34zM530 102v-102h-485v102l340 486h-334v102h472v-102l-340 -486h347z" />
    <glyph glyph-name="zdotaccent" unicode="&#x17c;" horiz-adv-x="518" 
d="M279 573h-37q-35 0 -35 34v54q0 35 35 35h37q35 0 35 -35v-54q0 -34 -35 -34zM473 93v-93h-428v93l288 304h-284v93h420v-93l-288 -304h292z" />
    <glyph glyph-name="Zcaron" unicode="&#x17d;" horiz-adv-x="574" 
d="M265 741l-147 131l37 50l133 -81h8l132 81l38 -50l-148 -131h-53zM530 102v-102h-485v102l340 486h-334v102h472v-102l-340 -486h347z" />
    <glyph glyph-name="zcaron" unicode="&#x17e;" horiz-adv-x="518" 
d="M235 560l-148 131l37 51l133 -82h8l132 82l39 -51l-149 -131h-52zM473 93v-93h-428v93l288 304h-284v93h420v-93l-288 -304h292z" />
    <glyph glyph-name="florin" unicode="&#x192;" horiz-adv-x="464" 
d="M435 606h-71q-38 0 -54.5 -14t-19.5 -54l-13 -134h129l-8 -89h-129l-30 -322q-6 -73 -44 -111t-117 -38q-69 0 -116 9l16 87h65q38 0 55 15t21 53l28 307h-98l6 85l100 4l14 149q13 148 165 148q75 0 118 -8z" />
    <glyph glyph-name="Scommaaccent" unicode="&#x218;" horiz-adv-x="570" 
d="M326 273l-139 44q-75 24 -107 72.5t-32 127.5q0 113 52.5 149t184.5 36q127 0 217 -23l-8 -89q-114 4 -205 4q-69 0 -92 -13.5t-23 -65.5q0 -43 16.5 -60.5t60.5 -31.5l133 -41q79 -25 110.5 -73.5t31.5 -127.5q0 -114 -54 -153.5t-191 -39.5q-114 0 -224 22l8 92
q175 -4 219 -4q69 0 92 16t23 68q0 44 -15.5 61t-57.5 30zM268 -55h29q22 0 30.5 -8t8.5 -28v-53q-1 -78 -41 -141l-49 13q11 47 11 103q-30 0 -30 32v46q2 20 10.5 28t30.5 8z" />
    <glyph glyph-name="scommaaccent" unicode="&#x219;" horiz-adv-x="517" 
d="M287 186l-129 35q-64 18 -89.5 51t-25.5 93q0 79 45 109t155 30q120 -2 217 -18l-9 -84q-124 4 -187 4q-66 0 -85 -6.5t-19 -35.5q0 -7 1.5 -13l2.5 -10t5.5 -7.5t6.5 -5.5t10 -5t11 -4t14 -4t16 -4l132 -36q63 -18 90 -48.5t27 -92.5q0 -86 -49 -115.5t-170 -29.5
q-110 0 -205 16l8 85q52 -4 167 -4q79 0 105.5 9t26.5 38q0 6 -1 11t-3 9t-4 7t-7 6t-8 4.5t-10.5 4t-11 3.5t-13.5 4t-14 4zM247 -54h29q22 0 30.5 -8t8.5 -28v-53q-1 -76 -41 -141l-49 13q11 48 11 104q-32 0 -30 31v46q1 20 10 28t31 8z" />
    <glyph glyph-name="uni021A" unicode="&#x21a;" horiz-adv-x="592" 
d="M571 583h-213v-583h-126v583h-211v107h550v-107zM270 -55h30q22 0 30 -8t8 -28v-53q-1 -79 -40 -141l-50 13q12 51 12 103q-31 0 -31 32v46q1 20 10.5 28t30.5 8z" />
    <glyph glyph-name="uni021B" unicode="&#x21b;" horiz-adv-x="400" 
d="M231 402v-249q0 -32 13 -44.5t46 -12.5h67l13 -90q-53 -17 -126 -17q-64 0 -98.5 37t-34.5 106v270h-89v83l88 5v141h121v-141h144v-88h-144zM216 -55h30q22 0 30 -8t8 -28v-53q0 -77 -40 -141l-50 13q12 45 12 103q-31 0 -31 32v46q1 20 10.5 28t30.5 8z" />
    <glyph glyph-name="circumflex" unicode="&#x2c6;" horiz-adv-x="436" 
d="M395 586l-39 -49l-133 96h-8l-134 -96l-37 50l131 132h88z" />
    <glyph glyph-name="caron" unicode="&#x2c7;" horiz-adv-x="436" 
d="M394 685l-149 -131h-52l-148 131l37 50l133 -81h8l132 81z" />
    <glyph glyph-name="breve" unicode="&#x2d8;" horiz-adv-x="385" 
d="M292 702l59 -8q6 -62 -37.5 -102.5t-119.5 -40.5q-78 0 -121.5 40.5t-37.5 102.5l59 8q0 -66 100 -66q98 0 98 66z" />
    <glyph glyph-name="dotaccent" unicode="&#x2d9;" horiz-adv-x="229" 
d="M96 694h38q34 0 34 -35v-54q0 -34 -34 -34h-38q-35 0 -35 34v54q0 35 35 35z" />
    <glyph glyph-name="ring" unicode="&#x2da;" horiz-adv-x="306" 
d="M153 750q46 0 79.5 -32.5t33.5 -78.5q0 -47 -33 -79t-80 -32q-48 0 -80.5 31.5t-32.5 79.5q0 46 33 78.5t80 32.5zM153 693q-23 0 -38 -15t-15 -39q0 -25 15 -39.5t38 -14.5t38 14.5t15 39.5q0 24 -15.5 39t-37.5 15z" />
    <glyph glyph-name="ogonek" unicode="&#x2db;" horiz-adv-x="251" 
d="M142 2l51 -2q-48 -59 -66 -106q-15 -32 6 -42.5t63 3.5l13 -48q-69 -27 -109.5 -19.5t-54.5 35t-1 63.5q20 59 98 116z" />
    <glyph glyph-name="tilde" unicode="&#x2dc;" horiz-adv-x="431" 
d="M103 577h-53q-9 65 15.5 99t64.5 31q34 -3 82 -25t73 -25q25 -4 34 6.5t9 38.5h53q9 -63 -14 -97.5t-66 -31.5q-38 3 -87 26t-69 26q-25 3 -33.5 -8t-8.5 -40z" />
    <glyph glyph-name="hungarumlaut" unicode="&#x2dd;" horiz-adv-x="481" 
d="M247 686l-145 -164l-51 39l112 182zM426 686l-145 -164l-50 39l111 182z" />
    <glyph glyph-name="Delta" unicode="&#x394;" horiz-adv-x="641" 
d="M620 46v-46h-600v46l238 644h125zM475 98l-132 387q-2 6 -22 85q-2 -8 -10 -39t-13 -47l-134 -386h311z" />
    <glyph glyph-name="Omega" unicode="&#x3a9;" horiz-adv-x="719" 
d="M49 107h90q34 0 68 -11q-76 58 -107.5 122t-30.5 164q0 164 68 242.5t223 78.5q154 0 222 -79t68 -244q0 -103 -31 -165.5t-107 -118.5q39 11 68 11h90v-107h-266v101q65 49 90.5 107.5t25.5 155.5q0 128 -36.5 180.5t-124.5 52.5q-89 0 -124.5 -52.5t-35.5 -182.5
q0 -100 25.5 -154t89.5 -107v-101h-265v107z" />
    <glyph glyph-name="mu" unicode="&#x3bc;" horiz-adv-x="608" 
d="M527 490v-490h-95l-11 71q-95 -84 -187 -84q-29 0 -56 8q6 -29 6 -58v-132h-106v685h122v-331q-1 -31 16 -45.5t53 -14.5q53 0 136 42v349h122z" />
    <glyph glyph-name="pi" unicode="&#x3c0;" horiz-adv-x="645" 
d="M621 398h-85v-398h-121v398h-185v-398h-121v398h-85v93h597v-93z" />
    <glyph glyph-name="uni0401" unicode="&#x401;" 
d="M241 779h-40q-30 0 -30 31v55q0 30 30 30h40q30 0 30 -30v-55q0 -31 -30 -31zM420 779h-40q-30 0 -30 31v55q0 30 30 30h40q30 0 30 -30v-55q0 -31 -30 -31zM517 101l5 -95q-91 -8 -304 -8q-68 0 -107 35t-39 96v432q0 61 39 96t107 35q213 0 304 -8l-5 -96h-271
q-27 0 -38 -13t-11 -45v-121h282v-96h-282v-154q0 -32 11 -45t38 -13h271z" />
    <glyph glyph-name="uni0402" unicode="&#x402;" horiz-adv-x="757" 
d="M358 583v-185q88 49 189 49q83 0 128.5 -44t45.5 -167q0 -135 -67.5 -191.5t-192.5 -51.5l-12 90q81 8 114 37t33 105q0 75 -19.5 96t-73.5 21q-69 0 -145 -38v-304h-126v583h-211v107h549v-107h-212z" />
    <glyph glyph-name="uni0403" unicode="&#x403;" horiz-adv-x="524" 
d="M470 836l-213 -112l-38 54l188 148zM76 0v549q0 63 39 103t99 40q205 0 294 -9l-6 -95h-242q-33 0 -46 -13.5t-13 -49.5v-525h-125z" />
    <glyph glyph-name="uni0404" unicode="&#x404;" horiz-adv-x="583" 
d="M534 109l12 -95q-81 -26 -207 -26q-158 0 -222 80t-64 277t64 277t222 80q119 0 201 -22l-12 -95q-93 6 -189 6q-79 0 -114 -40t-41 -141h284v-94h-286q3 -123 37.5 -170t119.5 -47q124 0 195 10z" />
    <glyph glyph-name="uni0405" unicode="&#x405;" horiz-adv-x="570" 
d="M326 273l-139 44q-75 24 -107 72.5t-32 127.5q0 113 52.5 149t184.5 36q127 0 217 -23l-8 -89q-114 4 -205 4q-69 0 -92 -13.5t-23 -65.5q0 -43 16.5 -60.5t60.5 -31.5l133 -41q79 -25 110.5 -73.5t31.5 -127.5q0 -114 -54 -153.5t-191 -39.5q-114 0 -224 22l8 92
q175 -4 219 -4q69 0 92 16t23 68q0 44 -15.5 61t-57.5 30z" />
    <glyph glyph-name="uni0406" unicode="&#x406;" horiz-adv-x="280" 
d="M203 0h-125v690h125v-690z" />
    <glyph glyph-name="uni0407" unicode="&#x407;" horiz-adv-x="280" 
d="M31 878h40q29 0 29 -30v-56q0 -30 -29 -30h-40q-30 0 -30 30v56q0 30 30 30zM210 878h40q30 0 30 -30v-56q0 -30 -30 -30h-40q-30 0 -30 30v56q0 30 30 30zM203 0h-125v690h125v-690z" />
    <glyph glyph-name="uni0408" unicode="&#x408;" horiz-adv-x="354" 
d="M279 690v-538q0 -79 -37.5 -121t-106.5 -42q-67 0 -110 17l13 87h47q70 0 70 62v535h124z" />
    <glyph glyph-name="uni0409" unicode="&#x409;" horiz-adv-x="973" 
d="M579 426h116q135 0 187 -47.5t52 -170.5q0 -124 -49.5 -170t-168.5 -46q-167 0 -260 8v593h-105q-52 0 -57 -63q-17 -177 -28 -251.5t-35 -138.5q-31 -78 -77.5 -110t-125.5 -32l-9 85q62 21 96 91q7 14 12 29.5t10 34t8 33t6.5 39t5.5 39t4.5 45.5t4 46t4.5 53t4 55
q7 142 157 142h248v-264zM579 97l116 -1q70 0 91.5 22.5t21.5 92.5q0 68 -22 93t-91 25h-116v-232z" />
    <glyph glyph-name="uni040A" unicode="&#x40a;" horiz-adv-x="977" 
d="M583 423h117q134 0 186 -47t52 -169q0 -123 -49 -169t-168 -46q-169 0 -262 8v325h-256v-325h-125v690h125v-267h256v267h124v-267zM583 97l117 -1q69 0 90.5 22t21.5 91q0 68 -21.5 93t-90.5 25h-117v-230z" />
    <glyph glyph-name="uni040B" unicode="&#x40b;" horiz-adv-x="776" 
d="M358 583v-183q103 48 203 48q86 0 126.5 -39.5t40.5 -122.5v-286h-125v260q0 45 -18.5 62.5t-67.5 17.5q-75 0 -159 -36v-304h-126v583h-211v107h549v-107h-212z" />
    <glyph glyph-name="uni040C" unicode="&#x40c;" horiz-adv-x="619" 
d="M277 724l-38 54l188 148l63 -90zM357 362v-4q85 -9 123 -68.5t95 -230.5q13 -38 20 -59h-131q-59 178 -79 220q-36 71 -89 86q-18 5 -42 5h-58q7 -40 7 -68v-243h-125v690h125v-203q0 -35 -7 -80h58q31 0 55.5 11.5t43 35t33.5 55t30 76t31 94.5q2 7 3 11h127
q-56 -171 -76 -211q-40 -85 -102 -107q-19 -7 -42 -10z" />
    <glyph glyph-name="uni040D" unicode="&#x40d;" horiz-adv-x="701" 
d="M414 778l-38 -54l-212 112l62 90zM623 0h-121v452q0 41 8 87h-6q-20 -54 -38 -84l-261 -455h-127v690h120v-446q0 -50 -8 -90h7q13 38 38 83l260 453h128v-690z" />
    <glyph glyph-name="uni040E" unicode="&#x40e;" horiz-adv-x="579" 
d="M388 892l60 -8q6 -62 -37.5 -102.5t-120.5 -40.5t-121 40.5t-38 102.5l59 8q0 -66 100 -66q48 0 73.5 17t24.5 49zM574 690l-177 -515q-30 -87 -67.5 -132t-101.5 -51q-70 -5 -145 15l14 91q39 -2 56 -3t38.5 1t29 6t18.5 14t16.5 22t14.5 35l9 25h-36q-61 0 -80 58
l-150 434h128l123 -377q3 -13 18 -13h33l130 390h129z" />
    <glyph glyph-name="uni040F" unicode="&#x40f;" horiz-adv-x="683" 
d="M605 690v-690h-212l-5 -151h-86l-6 151h-218v690h125v-593h276v593h126z" />
    <glyph glyph-name="uni0410" unicode="&#x410;" horiz-adv-x="636" 
d="M446 195h-256l-57 -195h-128l207 657q9 33 45 33h122q36 0 45 -33l207 -657h-128zM416 298l-69 238q-14 54 -15 59h-27l-16 -59l-69 -238h196z" />
    <glyph glyph-name="uni0411" unicode="&#x411;" horiz-adv-x="607" 
d="M203 404h121q135 0 188 -45.5t53 -162.5q0 -69 -15 -110.5t-51 -62t-77 -26.5t-113 -6q-124 0 -228 9h-3v690q133 7 225 7q93 0 221 -7l-10 -101h-311v-185zM203 94l121 -1q71 0 93 21t22 87q0 65 -22 88t-93 23h-121v-218z" />
    <glyph glyph-name="uni0412" unicode="&#x412;" horiz-adv-x="628" 
d="M439 360v-4q75 -7 107.5 -52.5t32.5 -131.5q0 -104 -51.5 -142t-175.5 -38q-179 0 -274 8v690q85 8 243 8q134 0 185.5 -37.5t51.5 -142.5q0 -75 -28 -113.5t-91 -44.5zM200 403h126q64 0 87.5 20.5t23.5 78.5q0 57 -26 76t-96 19h-115v-194zM200 94l132 -1
q70 0 95.5 20.5t25.5 81.5q0 68 -26.5 92t-99.5 25h-127v-218z" />
    <glyph glyph-name="uni0413" unicode="&#x413;" horiz-adv-x="524" 
d="M76 0v549q0 63 39 103t99 40q205 0 294 -9l-6 -95h-242q-33 0 -46 -13.5t-13 -49.5v-525h-125z" />
    <glyph glyph-name="uni0414" unicode="&#x414;" horiz-adv-x="717" 
d="M690 97v-248h-87l-11 151h-474l-11 -151h-87v248h71q73 171 93 452q4 65 45.5 103t111.5 38h261v-593h88zM477 97v496h-108q-34 0 -48.5 -14t-16.5 -50q-12 -149 -32.5 -248t-61.5 -184h267z" />
    <glyph glyph-name="uni0415" unicode="&#x415;" 
d="M517 101l5 -95q-91 -8 -304 -8q-68 0 -107 35t-39 96v432q0 61 39 96t107 35q213 0 304 -8l-5 -96h-271q-27 0 -38 -13t-11 -45v-121h282v-96h-282v-154q0 -32 11 -45t38 -13h271z" />
    <glyph glyph-name="uni0416" unicode="&#x416;" horiz-adv-x="926" 
d="M664 362v-4q83 -9 128 -77q34 -50 87 -212q3 -10 10 -33l12 -36h-131q-64 184 -82 221q-34 71 -80 85q-16 5 -36 5h-55q7 -40 7 -68v-243h-120v243q0 31 8 68h-59q-63 0 -95 -52t-87 -213q-10 -30 -16 -46h-131q61 190 84 238q41 84 101 108q23 9 52 12v4q-35 4 -61.5 20
t-43.5 32.5t-37 61.5t-29.5 72.5t-32.5 98.5q-9 28 -14 43h127q56 -164 78 -206q43 -76 104 -77h59q-7 45 -7 80v203h120v-203q0 -44 -7 -80h54q42 0 74 35.5t48.5 75t52.5 144.5q7 18 10 28h127q-56 -171 -75 -212q-40 -84 -102 -106q-19 -7 -42 -10z" />
    <glyph glyph-name="uni0417" unicode="&#x417;" horiz-adv-x="557" 
d="M58 587l-10 93q89 18 206 18q131 0 181 -37.5t50 -142.5q0 -75 -27.5 -113.5t-88.5 -44.5v-4q74 -7 105.5 -52.5t31.5 -131.5q0 -104 -50.5 -142t-171.5 -38q-153 0 -252 27l10 89q116 -16 219 -16q67 0 91.5 20.5t24.5 82.5q0 67 -26 91t-96 25h-125v94h125q60 0 83 20
t23 77t-24.5 77t-91.5 20q-55 0 -187 -12z" />
    <glyph glyph-name="uni0418" unicode="&#x418;" horiz-adv-x="701" 
d="M623 0h-121v452q0 41 8 87h-6q-20 -54 -38 -84l-261 -455h-127v690h120v-446q0 -50 -8 -90h7q13 38 38 83l260 453h128v-690z" />
    <glyph glyph-name="uni0419" unicode="&#x419;" horiz-adv-x="701" 
d="M426 888h86q6 -62 -37.5 -104.5t-119.5 -42.5q-77 0 -121.5 42.5t-37.5 104.5h86q-2 -84 73 -84q73 0 71 84zM623 0h-121v452q0 41 8 87h-6q-20 -54 -38 -84l-261 -455h-127v690h120v-446q0 -50 -8 -90h7q13 38 38 83l260 453h128v-690z" />
    <glyph glyph-name="uni041A" unicode="&#x41a;" horiz-adv-x="619" 
d="M357 362v-4q85 -9 123 -68.5t95 -230.5q13 -38 20 -59h-131q-59 178 -79 220q-36 71 -89 86q-18 5 -42 5h-58q7 -40 7 -68v-243h-125v690h125v-203q0 -35 -7 -80h58q31 0 55.5 11.5t43 35t33.5 55t30 76t31 94.5q2 7 3 11h127q-56 -171 -76 -211q-40 -85 -102 -107
q-19 -7 -42 -10z" />
    <glyph glyph-name="uni041B" unicode="&#x41b;" horiz-adv-x="665" 
d="M587 690v-690h-126v593h-107q-61 0 -67 -63q-14 -170 -26 -249.5t-37 -140.5q-62 -154 -207 -142l-10 97q38 9 62 26.5t37 51.5q23 58 35 135.5t24 241.5q12 140 154 140h268z" />
    <glyph glyph-name="uni041C" unicode="&#x41c;" horiz-adv-x="895" 
d="M626 690h128q47 0 50 -49l27 -641h-122l-24 589h-18l-119 -459q-11 -42 -53 -42h-95q-43 0 -54 42l-120 459h-18l-21 -589h-122l26 641q2 49 49 49h129q41 0 51 -42l99 -374q9 -38 20 -94h15q19 86 21 95l98 373q11 42 53 42z" />
    <glyph glyph-name="uni041D" unicode="&#x41d;" horiz-adv-x="679" 
d="M601 690v-690h-126v316h-272v-316h-125v690h125v-271h272v271h126z" />
    <glyph glyph-name="uni041E" unicode="&#x41e;" horiz-adv-x="675" 
d="M337 703q160 0 222.5 -77t62.5 -281t-62.5 -281t-222.5 -77q-159 0 -221.5 77t-62.5 281t62.5 281t221.5 77zM337 596q-87 0 -119.5 -53.5t-32.5 -197.5t32.5 -197.5t119.5 -53.5q88 0 120.5 53.5t32.5 197.5t-32.5 197.5t-120.5 53.5z" />
    <glyph glyph-name="uni041F" unicode="&#x41f;" horiz-adv-x="678" 
d="M600 690v-690h-125v593h-272v-593h-125v690h522z" />
    <glyph glyph-name="uni0420" unicode="&#x420;" horiz-adv-x="601" 
d="M78 0v690q89 9 250 9q135 0 186 -46.5t51 -175.5t-48.5 -175.5t-173.5 -46.5q-73 0 -139 8v-263h-126zM204 357h121q66 1 90 25.5t24 94.5t-24 94.5t-90 24.5h-121v-239z" />
    <glyph glyph-name="uni0421" unicode="&#x421;" horiz-adv-x="578" 
d="M535 108l11 -94q-83 -26 -212 -26q-155 0 -218 80t-63 277t63 277t218 80q116 0 198 -22l-12 -95q-87 7 -186 7q-86 0 -117.5 -52.5t-31.5 -194.5t31.5 -194.5t117.5 -52.5q127 0 201 10z" />
    <glyph glyph-name="uni0422" unicode="&#x422;" horiz-adv-x="592" 
d="M571 583h-213v-583h-126v583h-211v107h550v-107z" />
    <glyph glyph-name="uni0423" unicode="&#x423;" horiz-adv-x="579" 
d="M574 690l-177 -515q-30 -87 -67.5 -132t-101.5 -51q-70 -5 -145 15l14 91q39 -2 56 -3t38.5 1t29 6t18.5 14t16.5 22t14.5 35l9 25h-36q-61 0 -80 58l-150 434h128l123 -377q3 -13 18 -13h33l130 390h129z" />
    <glyph glyph-name="uni0424" unicode="&#x424;" horiz-adv-x="829" 
d="M477 741v-93q173 -8 243 -73.5t71 -222.5q-1 -153 -71 -217.5t-242 -72.5v-92h-126v92q-174 8 -243.5 72.5t-69.5 217.5q0 157 69.5 222.5t243.5 73.5v93h125zM357 163v385q-111 -6 -151 -47.5t-40 -148.5q0 -103 40 -143t151 -46zM472 548v-385q110 6 150 46t41 143
q-1 107 -40.5 148t-150.5 48z" />
    <glyph glyph-name="uni0425" unicode="&#x425;" horiz-adv-x="626" 
d="M322 312h-19l-154 -312h-132l183 355l-170 335h131l141 -288h21l141 288h132l-171 -335l184 -355h-133z" />
    <glyph glyph-name="uni0426" unicode="&#x426;" horiz-adv-x="703" 
d="M675 97v-248h-87l-10 151h-500v690h125v-593h262v593h126v-593h84z" />
    <glyph glyph-name="uni0427" unicode="&#x427;" horiz-adv-x="641" 
d="M563 690v-690h-125v297q-111 -56 -220 -56q-84 0 -124.5 40t-40.5 123v286h125v-260q-1 -42 18.5 -60.5t66.5 -18.5q83 0 175 38v301h125z" />
    <glyph glyph-name="uni0428" unicode="&#x428;" horiz-adv-x="951" 
d="M873 690v-690h-795v690h123v-593h213v593h122v-593h214v593h123z" />
    <glyph glyph-name="uni0429" unicode="&#x429;" horiz-adv-x="979" 
d="M951 97v-248h-87l-10 151h-776v690h123v-593h211v593h121v-593h212v593h122v-593h84z" />
    <glyph glyph-name="uni042A" unicode="&#x42a;" horiz-adv-x="754" 
d="M360 426h115q135 0 187.5 -47.5t52.5 -171.5q0 -123 -49.5 -169t-169.5 -46q-169 0 -262 8v583h-214v107h340v-264zM360 97l115 -1q71 0 92.5 22t21.5 91t-22 94.5t-92 25.5h-115v-232z" />
    <glyph glyph-name="uni042B" unicode="&#x42b;" horiz-adv-x="873" 
d="M203 426h118q135 0 187.5 -47.5t52.5 -171.5q0 -123 -49.5 -169t-169.5 -46q-170 0 -261 8h-3v690h125v-264zM795 690v-690h-125v690h125zM203 97l118 -1q71 0 92.5 22t21.5 91t-22 94.5t-92 25.5h-118v-232z" />
    <glyph glyph-name="uni042C" unicode="&#x42c;" horiz-adv-x="601" 
d="M203 426h119q135 0 187.5 -47.5t52.5 -171.5q0 -123 -49.5 -169t-169.5 -46q-171 0 -262 8h-3v690h125v-264zM203 97l119 -1q71 0 92.5 22t21.5 91t-22 94.5t-92 25.5h-119v-232z" />
    <glyph glyph-name="uni042D" unicode="&#x42d;" horiz-adv-x="583" 
d="M54 585l-11 95q82 22 200 22q158 0 222.5 -80t64.5 -277t-64.5 -277t-222.5 -80q-125 0 -206 26l12 95q71 -10 195 -10q85 0 119.5 47t36.5 170h-285v94h284q-6 101 -41 141t-114 40q-96 0 -190 -6z" />
    <glyph glyph-name="uni042E" unicode="&#x42e;" horiz-adv-x="950" 
d="M204 406h140q8 167 68 232t199 65q160 0 222.5 -77t62.5 -281t-62.5 -281t-222.5 -77q-144 0 -204 70t-64 252h-139v-309h-125v690h125v-284zM611 94q87 0 119.5 53.5t33.5 197.5q-1 144 -33.5 197.5t-119.5 53.5q-84 0 -115 -53.5t-31 -197.5t31 -197.5t115 -53.5z" />
    <glyph glyph-name="uni042F" unicode="&#x42f;" horiz-adv-x="623" 
d="M546 0h-126v271l-119 -1q-62 0 -80 -63l-53 -207h-132l58 211q22 84 101 99l-1 6q-71 9 -101.5 53t-29.5 128q0 109 54 155.5t179 46.5q161 0 250 -9v-690zM420 373v223h-121q-64 0 -87 -22t-24 -85q0 -63 24.5 -89.5t86.5 -26.5h121z" />
    <glyph glyph-name="uni0430" unicode="&#x430;" horiz-adv-x="562" 
d="M78 394l-11 86q129 24 244 24q95 0 140 -38t45 -133v-333h-96l-13 75q-77 -86 -187 -86q-69 0 -112 37.5t-43 104.5v50q0 59 38 91t107 32h184v30q-1 42 -19 56t-71 14q-76 0 -206 -10zM166 166v-19q0 -32 15 -46t49 -14q73 0 144 58v76h-156q-29 -1 -40.5 -15t-11.5 -40
z" />
    <glyph glyph-name="uni0431" unicode="&#x431;" horiz-adv-x="584" 
d="M486 739l26 -95q-38 -23 -75 -32t-81 -14t-74 -14q-96 -27 -118 -126q-10 -38 -13 -73h2q17 27 34.5 44.5t55.5 31.5t92 14q109 0 154.5 -54.5t45.5 -178.5q0 -129 -52 -191.5t-184 -62.5q-66 0 -111 16.5t-70 41t-38 69t-16 82.5t-3 100q0 169 36 256.5t145 121.5
q27 9 110.5 22.5t133.5 41.5zM303 380q-71 0 -93.5 -31t-22.5 -109q0 -89 24 -122t87 -33q62 0 86 33t24 121q0 83 -22 112t-83 29z" />
    <glyph glyph-name="uni0432" unicode="&#x432;" horiz-adv-x="561" 
d="M392 254v-3q66 -5 95 -37t29 -93q0 -74 -45.5 -101t-155.5 -27q-156 0 -246 6v491q80 6 218 6q119 0 164.5 -27.5t45.5 -103.5q0 -53 -25 -80t-80 -31zM183 292h108q52 0 72.5 13t20.5 48q0 31 -22 42.5t-80 11.5h-99v-115zM183 83h112q56 0 77.5 13t21.5 51
q0 37 -22.5 51.5t-80.5 14.5h-108v-130z" />
    <glyph glyph-name="uni0433" unicode="&#x433;" horiz-adv-x="474" 
d="M67 0v381q0 114 119 114q190 0 271 -11l-5 -85h-214q-26 0 -38 -12t-12 -39v-348h-121z" />
    <glyph glyph-name="uni0434" unicode="&#x434;" horiz-adv-x="611" 
d="M581 93v-236h-79l-9 143h-379l-9 -143h-79v236h61q49 115 64 278q9 119 137 119h219v-397h74zM393 93v308h-79q-51 0 -55 -52q-17 -161 -65 -256h199z" />
    <glyph glyph-name="uni0435" unicode="&#x435;" horiz-adv-x="551" 
d="M377 194h-200q6 -64 35.5 -85.5t95.5 -21.5q75 0 176 12l11 -78q-70 -33 -202 -33q-133 0 -189 59t-56 199q0 143 55 200.5t182 57.5q117 0 169.5 -42.5t52.5 -127.5q2 -140 -130 -140zM174 279h169q44 0 44 57q0 40 -21 56t-76 16q-65 0 -89 -26.5t-27 -102.5z" />
    <glyph glyph-name="uni0436" unicode="&#x436;" horiz-adv-x="807" 
d="M590 258v-3q28 -4 47.5 -9.5t36.5 -21t28 -29t25.5 -48t24.5 -62t29 -85.5h-123q-50 137 -73 173.5t-72 37.5h-60q5 -25 5 -44v-167h-106v167q0 19 5 44h-63q-47 -1 -70 -37.5t-74 -173.5h-123q20 61 29 86t24 61t25 48.5t27.5 28.5t37 21.5t47.5 9.5v3q-70 8 -98.5 48
t-71.5 166l-6 18h120q42 -116 67 -154t72 -38h57q-5 24 -5 57v135h106v-135q0 -33 -5 -57h54q48 0 72.5 38t65.5 154h121q-46 -133 -65 -165q-30 -51 -87 -63q-11 -3 -24 -4z" />
    <glyph glyph-name="uni0437" unicode="&#x437;" horiz-adv-x="509" 
d="M58 393l-8 89q66 19 162 19q131 0 181.5 -26.5t50.5 -106.5q0 -55 -23.5 -82t-79.5 -32v-3q64 -5 93 -36.5t29 -92.5q0 -80 -49.5 -106.5t-170.5 -26.5t-210 18l9 89q101 -9 193 -9q62 0 82.5 11.5t20.5 48.5q0 35 -21.5 47.5t-81.5 13.5h-130v84h129q53 0 71.5 12
t18.5 47q0 31 -22 41t-85 10q-82 0 -159 -9z" />
    <glyph glyph-name="uni0438" unicode="&#x438;" horiz-adv-x="595" 
d="M524 0h-109v283q0 3 5 73h-3q-10 -26 -36 -66l-211 -290h-100v490h108v-286q0 -36 -4 -69h3q17 37 36 62l211 293h100v-490z" />
    <glyph glyph-name="uni0439" unicode="&#x439;" horiz-adv-x="595" 
d="M367 708h87q6 -62 -37.5 -104.5t-119.5 -42.5q-77 0 -121.5 42.5t-38.5 104.5h87q-2 -84 73 -84q73 0 70 84zM524 0h-109v283q0 3 5 73h-3q-10 -26 -36 -66l-211 -290h-100v490h108v-286q0 -36 -4 -69h3q17 37 36 62l211 293h100v-490z" />
    <glyph glyph-name="uni043A" unicode="&#x43a;" horiz-adv-x="551" 
d="M330 257v-3q21 -2 37 -6t31 -12.5t25 -16t21.5 -25.5t18.5 -31.5t19 -43.5t19.5 -52.5t22.5 -66.5h-127q-47 136 -72 172.5t-84 37.5h-5h-50q5 -25 5 -43v-167h-121v490h121v-134q0 -28 -6 -57h50q60 0 86.5 38t63.5 153h123q-46 -135 -66 -168q-30 -48 -89 -61
q-11 -2 -23 -4z" />
    <glyph glyph-name="uni043B" unicode="&#x43b;" horiz-adv-x="578" 
d="M508 490v-490h-122v400h-81q-28 0 -39.5 -11.5t-15.5 -43.5q-23 -174 -41 -234q-34 -127 -181 -116l-12 91q40 7 57 19t28 40q21 64 36 222q6 62 39 92.5t98 30.5h234z" />
    <glyph glyph-name="uni043C" unicode="&#x43c;" horiz-adv-x="767" 
d="M528 490h117q43 0 43 -43l18 -447h-111l-16 401h-16l-95 -304q-11 -38 -46 -38h-79q-36 0 -47 38l-95 304h-15l-15 -401h-110l17 447q0 43 44 43h116q36 0 45 -38l76 -244q7 -20 17 -72h13q9 46 16 72l76 244q11 38 47 38z" />
    <glyph glyph-name="uni043D" unicode="&#x43d;" horiz-adv-x="593" 
d="M523 490v-490h-119v215h-214v-215h-120v490h120v-186h214v186h119z" />
    <glyph glyph-name="uni043E" unicode="&#x43e;" horiz-adv-x="580" 
d="M290 504q132 0 187 -59t55 -200t-54.5 -199.5t-187.5 -58.5q-132 0 -187 58.5t-55 199.5t55 200t187 59zM290 407q-67 0 -91 -33.5t-24 -128.5q0 -94 24 -127.5t91 -33.5t91.5 33.5t24.5 127.5q0 95 -24.5 128.5t-91.5 33.5z" />
    <glyph glyph-name="uni043F" unicode="&#x43f;" horiz-adv-x="585" 
d="M514 491v-491h-118v398h-208v-398h-118v491h444z" />
    <glyph glyph-name="uni0440" unicode="&#x440;" horiz-adv-x="595" 
d="M170 490l9 -73q34 38 90 62t110 24q167 0 167 -262q0 -139 -45.5 -196t-142.5 -57q-99 0 -170 48q4 -51 3 -102v-129h-121v685h100zM191 342v-234q94 -21 131 -21q56 0 77.5 30.5t21.5 124.5q0 91 -19.5 126t-66.5 35q-34 0 -65.5 -14.5t-78.5 -46.5z" />
    <glyph glyph-name="uni0441" unicode="&#x441;" horiz-adv-x="501" 
d="M455 98l12 -80q-74 -30 -180 -30q-131 0 -185 58t-54 200t54.5 200t185.5 58q102 0 171 -28l-14 -76q-50 2 -137 2q-75 0 -104 -33t-29 -123q0 -91 29 -124.5t104 -33.5q81 0 147 10z" />
    <glyph glyph-name="uni0442" unicode="&#x442;" horiz-adv-x="503" 
d="M480 394h-168v-394h-120v394h-169v96h457v-96z" />
    <glyph glyph-name="uni0443" unicode="&#x443;" horiz-adv-x="549" 
d="M535 490l-182 -505q-38 -110 -108 -155q-69 -48 -201 -29l11 84q83 -5 121 18q38 25 65 87l4 10h-24q-33 0 -41 30l-167 460h130l107 -337q13 -46 16 -65h13q10 29 20 65l105 337h131z" />
    <glyph glyph-name="uni0444" unicode="&#x444;" horiz-adv-x="734" 
d="M422 700v-198q143 -8 204 -67.5t61 -189.5q0 -129 -61 -188.5t-204 -67.5v-184h-110v185q-143 8 -204 67t-61 188q0 130 61 189.5t204 67.5v198h110zM316 85v321q-86 -6 -119.5 -41.5t-33.5 -119.5t33.5 -119t119.5 -41zM418 406v-321q86 6 119.5 41t33.5 119
t-33.5 119.5t-119.5 41.5z" />
    <glyph glyph-name="uni0445" unicode="&#x445;" horiz-adv-x="550" 
d="M281 210h-13l-123 -210h-128l154 252l-142 238h127l111 -192h16l111 192h127l-143 -238l155 -252h-129z" />
    <glyph glyph-name="uni0446" unicode="&#x446;" horiz-adv-x="611" 
d="M502 -143l-11 143h-421v490h120v-397h199v397h120v-397h73v-236h-80z" />
    <glyph glyph-name="uni0447" unicode="&#x447;" horiz-adv-x="550" 
d="M478 490v-490h-119v191q-91 -30 -175 -30q-136 0 -136 110v219h120v-179q0 -31 12.5 -43t44.5 -12q66 0 134 26v208h119z" />
    <glyph glyph-name="uni0448" unicode="&#x448;" horiz-adv-x="822" 
d="M752 490v-490h-682v490h117v-397h170v397h108v-397h170v397h117z" />
    <glyph glyph-name="uni0449" unicode="&#x449;" horiz-adv-x="854" 
d="M825 -143h-80l-11 143h-664v490h117v-397h170v397h107v-397h171v397h117v-397h73v-236z" />
    <glyph glyph-name="uni044A" unicode="&#x44a;" horiz-adv-x="641" 
d="M306 314h88q121 0 166 -34.5t45 -126.5q0 -91 -43.5 -125t-147.5 -34q-143 0 -225 6v398h-167v92h284v-176zM306 85h88q52 0 70.5 14.5t18.5 58.5q0 42 -18 57t-71 15h-88v-145z" />
    <glyph glyph-name="uni044B" unicode="&#x44b;" horiz-adv-x="753" 
d="M187 314h91q121 0 166 -34.5t45 -126.5q0 -91 -43.5 -125t-147.5 -34q-144 0 -224 6h-4v490h117v-176zM682 490v-490h-121v490h121zM187 85h91q52 0 70.5 14.5t18.5 58.5q0 42 -18.5 57t-70.5 15h-91v-145z" />
    <glyph glyph-name="uni044C" unicode="&#x44c;" horiz-adv-x="526" 
d="M187 314h91q121 0 166.5 -34.5t45.5 -126.5q0 -91 -43.5 -125t-147.5 -34q-145 0 -225 6h-4v490h117v-176zM187 85h91q52 0 70.5 14.5t18.5 58.5q0 42 -18 57t-71 15h-91v-145z" />
    <glyph glyph-name="uni044D" unicode="&#x44d;" horiz-adv-x="522" 
d="M52 397l-11 81q67 21 179 21q141 0 197.5 -56.5t56.5 -199.5q0 -140 -57 -197t-197 -57q-113 0 -183 23l10 82q65 -5 173 -5q71 0 98.5 24t31.5 95h-246v84h245q-6 63 -34.5 86t-94.5 22q-84 0 -168 -3z" />
    <glyph glyph-name="uni044E" unicode="&#x44e;" horiz-adv-x="815" 
d="M191 297h108q7 118 58 162.5t169 44.5q135 0 187.5 -54.5t52.5 -204.5q0 -146 -53 -200t-187 -54q-121 0 -171.5 46t-56.5 170h-107v-207h-121v490h121v-193zM523 89q68 0 92.5 33t25.5 125q-1 92 -25.5 124.5t-92.5 32.5q-66 0 -89 -32.5t-23 -124.5t23 -125t89 -33z
" />
    <glyph glyph-name="uni044F" unicode="&#x44f;" horiz-adv-x="555" 
d="M168 210v4q-58 11 -83 43.5t-25 90.5q0 81 42.5 115.5t155.5 34.5q156 0 228 -7v-491h-119v173h-110q-57 0 -66 -42l-35 -131h-125l43 150q14 50 94 60zM367 258v146l-107 1q-52 0 -67 -14t-15 -58t15.5 -59.5t66.5 -15.5h107z" />
    <glyph glyph-name="uni0451" unicode="&#x451;" horiz-adv-x="551" 
d="M217 583h-40q-30 0 -30 30v55q0 31 30 31h40q30 0 30 -31v-55q0 -30 -30 -30zM396 583h-40q-30 0 -30 30v55q0 31 30 31h40q30 0 30 -31v-55q0 -30 -30 -30zM377 194h-200q6 -64 35.5 -85.5t95.5 -21.5q75 0 176 12l11 -78q-70 -33 -202 -33q-133 0 -189 59t-56 199
q0 143 55 200.5t182 57.5q117 0 169.5 -42.5t52.5 -127.5q2 -140 -130 -140zM174 279h169q44 0 44 57q0 40 -21 56t-76 16q-65 0 -89 -26.5t-27 -102.5z" />
    <glyph glyph-name="uni0452" unicode="&#x452;" horiz-adv-x="597" 
d="M215 485v-60q0 -45 -5 -88q103 71 203 71q137 0 137 -135v-273h-122v237q0 37 -15 51t-55 14q-55 0 -143 -47v-255h-121v485h-71v64h71v151h121v-151h173v-64h-173z" />
    <glyph glyph-name="uni0453" unicode="&#x453;" horiz-adv-x="474" 
d="M443 656l-213 -112l-38 54l188 147zM67 0v381q0 114 119 114q190 0 271 -11l-5 -85h-214q-26 0 -38 -12t-12 -39v-348h-121z" />
    <glyph glyph-name="uni0454" unicode="&#x454;" horiz-adv-x="522" 
d="M474 94l11 -82q-72 -23 -184 -23q-140 0 -196.5 57t-56.5 197q0 143 56.5 199.5t196.5 56.5q112 0 179 -21l-11 -81q-83 3 -168 3q-65 1 -93.5 -22t-35.5 -86h246v-84h-247q4 -71 32 -95t98 -24q109 0 173 5z" />
    <glyph glyph-name="uni0455" unicode="&#x455;" horiz-adv-x="520" 
d="M288 186l-129 35q-63 18 -88.5 51t-25.5 93q0 79 45 109t155 30q118 -2 217 -18l-9 -84q-126 4 -187 4q-66 0 -85 -6.5t-19 -35.5q0 -7 1.5 -13l2.5 -10t5.5 -7.5t6.5 -5.5t10 -5t11 -4t14 -4t16 -4l131 -36q64 -18 91 -48.5t27 -92.5q0 -86 -49.5 -115.5t-169.5 -29.5
q-110 0 -205 16l7 85q53 -4 168 -4q79 0 105 9t26 38q0 6 -1 10.5t-2 8t-4 7t-4.5 5.5t-7 4.5t-8 4t-9.5 3.5l-10.5 3t-12.5 3.5t-13 3.5z" />
    <glyph glyph-name="uni0456" unicode="&#x456;" horiz-adv-x="269" 
d="M107 703h56q35 0 35 -35v-55q0 -35 -35 -35h-56q-35 0 -35 35v55q0 35 35 35zM195 0h-121v490h121v-490z" />
    <glyph glyph-name="uni0457" unicode="&#x457;" horiz-adv-x="269" 
d="M25 699h40q30 0 30 -31v-55q0 -30 -30 -30h-40q-29 0 -29 30v55q0 31 29 31zM204 699h40q30 0 30 -31v-55q0 -30 -30 -30h-40q-30 0 -30 30v55q0 31 30 31zM195 0h-121v490h121v-490z" />
    <glyph glyph-name="uni0458" unicode="&#x458;" horiz-adv-x="270" 
d="M107 704h56q35 0 35 -35v-54q0 -35 -35 -35h-56q-35 0 -35 35v54q0 35 35 35zM196 490v-481q0 -65 -30 -121t-82 -88l-67 53q57 68 57 156v481h122z" />
    <glyph glyph-name="uni0459" unicode="&#x459;" horiz-adv-x="819" 
d="M483 313h90q120 0 165 -34.5t45 -125.5t-43.5 -125t-147.5 -34q-140 0 -223 6v404h-59q-27 0 -38.5 -9.5t-13.5 -34.5q-22 -183 -47 -254q-21 -63 -69 -90t-109 -20l-9 82q20 6 30.5 10t25.5 17t24 33q17 34 25 82.5t20 161.5q12 108 125 108h209v-177zM483 85l90 -1
q52 0 70.5 14.5t18.5 59.5q0 42 -18.5 57t-70.5 15h-90v-145z" />
    <glyph glyph-name="uni045A" unicode="&#x45a;" horiz-adv-x="822" 
d="M486 310h91q120 0 164.5 -33.5t44.5 -123.5q0 -91 -43 -125t-146 -34q-142 0 -225 6v227h-190v-227h-112v490h112v-180h190v180h114v-180zM486 85l91 -1q51 0 69.5 14.5t18.5 58.5q0 41 -18 56t-70 15h-91v-143z" />
    <glyph glyph-name="uni045B" unicode="&#x45b;" horiz-adv-x="597" 
d="M215 485v-60q0 -45 -5 -88q103 71 203 71q135 0 137 -135v-264q0 -64 -30 -120.5t-81 -88.5l-67 53q56 67 56 155v229q0 36 -15.5 50.5t-54.5 14.5q-55 0 -143 -47v-255h-121v485h-71v64h71v151h121v-151h173v-64h-173z" />
    <glyph glyph-name="uni045C" unicode="&#x45c;" horiz-adv-x="551" 
d="M247 544l-38 54l188 147l62 -89zM330 257v-3q21 -2 37 -6t31 -12.5t25 -16t21.5 -25.5t18.5 -31.5t19 -43.5t19.5 -52.5t22.5 -66.5h-127q-47 136 -72 172.5t-84 37.5h-5h-50q5 -25 5 -43v-167h-121v490h121v-134q0 -28 -6 -57h50q60 0 86.5 38t63.5 153h123
q-46 -135 -66 -168q-30 -48 -89 -61q-11 -2 -23 -4z" />
    <glyph glyph-name="uni045D" unicode="&#x45d;" horiz-adv-x="595" 
d="M356 598l-38 -54l-212 112l62 89zM524 0h-109v283q0 3 5 73h-3q-10 -26 -36 -66l-211 -290h-100v490h108v-286q0 -36 -4 -69h3q17 37 36 62l211 293h100v-490z" />
    <glyph glyph-name="uni045E" unicode="&#x45e;" horiz-adv-x="549" 
d="M344 708h86q7 -62 -36.5 -104.5t-120.5 -42.5t-121 42.5t-38 104.5h86q-2 -84 73 -84q73 0 71 84zM535 490l-182 -505q-38 -110 -108 -155q-69 -48 -201 -29l11 84q83 -5 121 18q38 25 65 87l4 10h-24q-33 0 -41 30l-167 460h130l107 -337q13 -46 16 -65h13q10 29 20 65
l105 337h131z" />
    <glyph glyph-name="uni045F" unicode="&#x45f;" horiz-adv-x="590" 
d="M520 490v-490h-176l-9 -164h-81l-9 164h-175v490h121v-397h209v397h120z" />
    <glyph glyph-name="uni0490" unicode="&#x490;" horiz-adv-x="531" 
d="M514 842v-168l-6 -86h-248q-33 0 -46 -13.5t-13 -49.5v-525h-125v549q0 63 39 103t99 40q139 0 206 -5l12 155h82z" />
    <glyph glyph-name="uni0491" unicode="&#x491;" horiz-adv-x="477" 
d="M453 399h-214q-26 1 -38 -11.5t-12 -39.5v-348h-121v381q0 114 118 114q122 0 181 -3l12 144h80v-152z" />
    <glyph glyph-name="uni04B0" unicode="&#x4b0;" horiz-adv-x="598" 
d="M506 213h-143v-213h-126v213h-143v70h119l-203 407h132l126 -268q14 -29 28 -83h9q14 54 28 83l126 268h130l-202 -407h119v-70z" />
    <glyph glyph-name="uni04B1" unicode="&#x4b1;" horiz-adv-x="600" 
d="M387 87h119v-75h-143v-207h-125v207h-144v75h119l-202 403h131l126 -264q9 -19 28 -83h9q15 58 27 84l126 263h131z" />
    <glyph glyph-name="uni04B6" unicode="&#x4b6;" horiz-adv-x="675" 
d="M649 85v-236h-87l-11 151h-112v292q-112 -51 -218 -51q-86 0 -127 40t-41 123v286h126v-260q-2 -44 18 -62.5t69 -18.5q82 0 173 39v302h126v-605h84z" />
    <glyph glyph-name="uni04B7" unicode="&#x4b7;" horiz-adv-x="581" 
d="M471 -143l-10 143h-103v191q-92 -30 -174 -30q-136 0 -136 110v219h120v-179q0 -31 12.5 -43t43.5 -12q68 0 134 26v208h120v-397h74v-236h-81z" />
    <glyph glyph-name="uni04BA" unicode="&#x4ba;" horiz-adv-x="642" 
d="M203 690v-291q110 50 218 50q86 0 127 -40t41 -123v-286h-125v260q1 44 -19 62.5t-69 18.5q-85 0 -173 -38v-303h-125v690h125z" />
    <glyph glyph-name="uni04C0" unicode="&#x4c0;" horiz-adv-x="282" 
d="M204 0h-125v690h125v-690z" />
    <glyph glyph-name="Wgrave" unicode="&#x1e80;" horiz-adv-x="961" 
d="M541 777l-38 -54l-212 112l62 90zM932 690l-119 -655q-4 -16 -16.5 -25.5t-29.5 -9.5h-131q-39 0 -46 36l-87 481q-5 27 -13 81h-20q-9 -58 -13 -81l-86 -481q-3 -16 -16 -26t-31 -10h-130q-17 0 -30 9.5t-16 25.5l-119 655h130l82 -503q6 -34 11 -94h21q9 58 16 94
l85 463q7 40 46 40h122q17 0 29.5 -11t15.5 -29l85 -464q10 -50 14 -93h22q2 14 5.5 45.5t5.5 46.5l83 505h130z" />
    <glyph glyph-name="wgrave" unicode="&#x1e81;" horiz-adv-x="834" 
d="M478 598l-38 -54l-212 112l62 89zM815 490l-129 -457q-8 -33 -43 -33h-103q-38 0 -45 38l-59 301q-2 11 -6 38t-7 42h-12l-14 -80l-57 -301q-3 -17 -16 -27.5t-30 -10.5h-101q-38 0 -44 33l-130 457h124l81 -337q10 -45 13 -78h13l15 78l60 301q7 36 43 36h99
q17 0 29 -10t15 -27l58 -300q2 -15 7.5 -42.5t7.5 -35.5h13q9 61 13 78l81 337h124z" />
    <glyph glyph-name="Wacute" unicode="&#x1e82;" horiz-adv-x="961" 
d="M656 835l-213 -112l-38 54l188 148zM932 690l-119 -655q-4 -16 -16.5 -25.5t-29.5 -9.5h-131q-39 0 -46 36l-87 481q-5 27 -13 81h-20q-9 -58 -13 -81l-86 -481q-3 -16 -16 -26t-31 -10h-130q-17 0 -30 9.5t-16 25.5l-119 655h130l82 -503q6 -34 11 -94h21q9 58 16 94
l85 463q7 40 46 40h122q17 0 29.5 -11t15.5 -29l85 -464q10 -50 14 -93h22q2 14 5.5 45.5t5.5 46.5l83 505h130z" />
    <glyph glyph-name="wacute" unicode="&#x1e83;" horiz-adv-x="834" 
d="M593 656l-213 -112l-38 54l188 147zM815 490l-129 -457q-8 -33 -43 -33h-103q-38 0 -45 38l-59 301q-2 11 -6 38t-7 42h-12l-14 -80l-57 -301q-3 -17 -16 -27.5t-30 -10.5h-101q-38 0 -44 33l-130 457h124l81 -337q10 -45 13 -78h13l15 78l60 301q7 36 43 36h99
q17 0 29 -10t15 -27l58 -300q2 -15 7.5 -42.5t7.5 -35.5h13q9 61 13 78l81 337h124z" />
    <glyph glyph-name="Wdieresis" unicode="&#x1e84;" horiz-adv-x="961" 
d="M371 878h40q30 0 30 -30v-56q0 -30 -30 -30h-40q-29 0 -29 30v56q0 30 29 30zM551 878h39q30 0 30 -30v-56q0 -30 -30 -30h-39q-31 0 -31 30v56q0 30 31 30zM932 690l-119 -655q-4 -16 -16.5 -25.5t-29.5 -9.5h-131q-39 0 -46 36l-87 481q-5 27 -13 81h-20
q-9 -58 -13 -81l-86 -481q-3 -16 -16 -26t-31 -10h-130q-17 0 -30 9.5t-16 25.5l-119 655h130l82 -503q6 -34 11 -94h21q9 58 16 94l85 463q7 40 46 40h122q17 0 29.5 -11t15.5 -29l85 -464q10 -50 14 -93h22q2 14 5.5 45.5t5.5 46.5l83 505h130z" />
    <glyph glyph-name="wdieresis" unicode="&#x1e85;" horiz-adv-x="834" 
d="M308 699h41q29 0 29 -31v-55q0 -30 -29 -30h-41q-29 0 -29 30v55q0 31 29 31zM488 699h39q31 0 31 -31v-55q0 -30 -31 -30h-39q-31 0 -31 30v55q0 31 31 31zM815 490l-129 -457q-8 -33 -43 -33h-103q-38 0 -45 38l-59 301q-2 11 -6 38t-7 42h-12l-14 -80l-57 -301
q-3 -17 -16 -27.5t-30 -10.5h-101q-38 0 -44 33l-130 457h124l81 -337q10 -45 13 -78h13l15 78l60 301q7 36 43 36h99q17 0 29 -10t15 -27l58 -300q2 -15 7.5 -42.5t7.5 -35.5h13q9 61 13 78l81 337h124z" />
    <glyph glyph-name="Ygrave" unicode="&#x1ef2;" horiz-adv-x="589" 
d="M316 724l-213 112l63 90l188 -148zM357 233v-233h-125v235l-227 455h132l126 -268q7 -16 28 -83h8q21 67 28 83l126 268h130z" />
    <glyph glyph-name="ygrave" unicode="&#x1ef3;" horiz-adv-x="546" 
d="M297 544l-212 112l62 89l188 -147zM533 490l-182 -505q-29 -83 -89 -138t-158 -50l-10 77q58 16 92 43.5t52 71.5l5 11h-24q-33 0 -41 30l-166 460h129l107 -337q10 -31 16 -65h14q4 12 10.5 34t9.5 31l105 337h130z" />
    <glyph glyph-name="endash" unicode="&#x2013;" horiz-adv-x="574" 
d="M510 211h-446v86h446v-86z" />
    <glyph glyph-name="emdash" unicode="&#x2014;" horiz-adv-x="874" 
d="M810 211h-746v86h746v-86z" />
    <glyph glyph-name="quoteleft" unicode="&#x2018;" horiz-adv-x="224" 
d="M128 474h-32q-24 0 -33 8.5t-9 30.5v58q1 85 44 155l54 -14q-13 -55 -13 -113q35 0 33 -35v-51q-2 -22 -11.5 -30.5t-32.5 -8.5z" />
    <glyph glyph-name="quoteright" unicode="&#x2019;" horiz-adv-x="221" 
d="M95 719h32q23 0 32 -8.5t10 -30.5v-58q-1 -85 -44 -155l-54 14q12 49 13 113q-34 0 -34 35v51q1 22 11.5 30.5t33.5 8.5z" />
    <glyph glyph-name="quotesinglbase" unicode="&#x201a;" horiz-adv-x="235" 
d="M103 127h32q23 0 32.5 -9t9.5 -31v-59q-1 -86 -44 -156l-54 14q13 55 13 115q-34 0 -34 35v51q1 22 11.5 31t33.5 9z" />
    <glyph glyph-name="quotedblleft" unicode="&#x201c;" horiz-adv-x="395" 
d="M128 474h-32q-24 0 -33 8.5t-9 30.5v58q1 85 44 155l54 -14q-13 -55 -13 -113q35 0 33 -35v-51q-2 -22 -11.5 -30.5t-32.5 -8.5zM299 474h-32q-23 0 -32.5 8.5t-9.5 30.5v58q1 85 44 155l54 -14q-13 -55 -13 -113q34 0 34 -35v-51q-1 -22 -11.5 -30.5t-33.5 -8.5z" />
    <glyph glyph-name="quotedblright" unicode="&#x201d;" horiz-adv-x="392" 
d="M95 719h32q23 0 32 -8.5t10 -30.5v-58q-1 -85 -44 -155l-54 14q12 49 13 113q-34 0 -34 35v51q1 22 11.5 30.5t33.5 8.5zM266 719h32q24 0 33 -8.5t9 -30.5v-58q-1 -85 -44 -155l-54 14q13 55 13 113q-35 0 -33 35v51q1 22 11 30.5t33 8.5z" />
    <glyph glyph-name="quotedblbase" unicode="&#x201e;" horiz-adv-x="406" 
d="M103 124h32q23 0 32 -8.5t10 -31.5v-58q-1 -86 -44 -155l-54 14q11 48 13 114q-34 0 -34 34v51q1 22 11.5 31t33.5 9zM274 124h32q24 0 33 -8.5t9 -31.5v-58q-1 -86 -44 -155l-54 14q13 55 13 114q-35 0 -33 34v51q1 22 11 31t33 9z" />
    <glyph glyph-name="dagger" unicode="&#x2020;" horiz-adv-x="464" 
d="M285 -110h-106l6 529v66l-6 206h106l-6 -206v-66zM428 490v-98l-129 12v86h129zM36 392v98h129v-86z" />
    <glyph glyph-name="daggerdbl" unicode="&#x2021;" horiz-adv-x="502" 
d="M303 -82l-83 -28l-16 174v371l-5 231l83 25l16 -177v-368zM55 392v98h129v-86zM447 490v-98l-129 12v86h129zM184 91h-129v98l129 -12v-86zM318 177l129 12v-98h-129v86z" />
    <glyph glyph-name="bullet" unicode="&#x2022;" horiz-adv-x="369" 
d="M180 371h13q53 0 74 -20.5t21 -73.5v-14q0 -56 -21 -77.5t-74 -21.5h-13q-56 0 -77.5 21.5t-21.5 77.5v14q0 53 21.5 73.5t77.5 20.5z" />
    <glyph glyph-name="ellipsis" unicode="&#x2026;" horiz-adv-x="880" 
d="M97 137h37q24 0 33.5 -9.5t9.5 -33.5v-51q0 -24 -9.5 -33.5t-33.5 -9.5h-37q-24 0 -33.5 9.5t-9.5 33.5v51q0 24 9.5 33.5t33.5 9.5zM417 137h37q24 0 33.5 -9.5t9.5 -33.5v-51q0 -24 -9.5 -33.5t-33.5 -9.5h-37q-24 0 -33.5 9.5t-9.5 33.5v51q0 24 9.5 33.5t33.5 9.5z
M737 137h37q24 0 33.5 -9.5t9.5 -33.5v-51q0 -24 -9.5 -33.5t-33.5 -9.5h-37q-24 0 -33.5 9.5t-9.5 33.5v51q0 24 9.5 33.5t33.5 9.5z" />
    <glyph glyph-name="perthousand" unicode="&#x2030;" horiz-adv-x="1283" 
d="M206 703q93 0 130 -46t37 -159q0 -112 -37.5 -158.5t-129.5 -46.5t-129.5 46.5t-37.5 158.5q0 113 37 159t130 46zM276 0h-81l428 690h80zM205 631q-44 0 -59.5 -27.5t-15.5 -105.5q0 -79 15.5 -106t59.5 -27q45 0 61 27t16 106q0 78 -16 105.5t-61 27.5zM694 400
q92 0 129.5 -46.5t37.5 -158.5q0 -114 -37 -160t-130 -46q-92 0 -129 46t-37 160q0 112 37 158.5t129 46.5zM1075 400q92 0 129 -46t37 -159q0 -114 -36.5 -160t-129.5 -46t-129.5 46t-36.5 160q0 113 37 159t129 46zM694 327q-45 0 -60.5 -27t-14.5 -105q-1 -78 15 -106
t60 -28t60 28t16 106t-16 105t-60 27zM1074 327q-44 0 -59.5 -27t-15.5 -105t15.5 -106t59.5 -28q45 0 61 27.5t16 106.5q0 78 -16 105t-61 27z" />
    <glyph glyph-name="guilsinglleft" unicode="&#x2039;" horiz-adv-x="308" 
d="M262 421l-114 -170l115 -174l-64 -41l-160 202v26l159 198z" />
    <glyph glyph-name="guilsinglright" unicode="&#x203a;" horiz-adv-x="310" 
d="M270 264v-26l-161 -202l-64 41l115 174l-114 170l64 41z" />
    <glyph glyph-name="fraction" unicode="&#x2044;" horiz-adv-x="160" 
d="M-93 0h-82l428 690h82z" />
    <glyph glyph-name="Euro" unicode="&#x20ac;" horiz-adv-x="636" 
d="M581 108l11 -94q-81 -26 -184 -26q-136 0 -203 64.5t-82 199.5h-79v69h75v24v35h-74v70h80q16 129 83 190.5t200 61.5q92 0 170 -22l-11 -95q-88 15 -167 7q-63 -4 -97 -38t-46 -104h237l-8 -70h-236v-37v-22h211l-7 -69h-199q11 -77 45 -114t100 -40q91 -7 181 10z" />
    <glyph glyph-name="trademark" unicode="&#x2122;" horiz-adv-x="973" 
d="M908 316h-78l-15 315h-10l-71 -237q-8 -27 -34 -27h-57q-26 0 -34 27l-71 237h-10l-14 -315h-78l15 348q2 32 31 32h82q26 0 34 -27l57 -192q3 -9 6.5 -27.5t5.5 -27.5h9q2 7 6 26.5t7 29.5l55 191q8 27 34 27h84q30 0 32 -32zM394 696v-69h-124v-311h-85v311h-125v69
h334z" />
    <glyph glyph-name="partialdiff" unicode="&#x2202;" horiz-adv-x="579" 
d="M122 614v89q95 2 159 -6.5t116.5 -31t80.5 -64.5t41 -106.5t9 -157.5q-8 -179 -69.5 -264t-190.5 -85q-65 0 -111.5 21t-70.5 57.5t-33 77.5t-7 88q5 96 58 159t154 62q92 -2 148 -62q2 90 -21 136t-83.5 66.5t-179.5 20.5zM271 92q69 0 96.5 56t35.5 171q-55 36 -116 36
q-113 0 -120 -124q-4 -65 21.5 -102t82.5 -37z" />
    <glyph glyph-name="emptyset" unicode="&#x2205;" horiz-adv-x="685" 
d="M343 633q121 0 206.5 -85.5t85.5 -206.5t-85.5 -207t-206.5 -86t-207 86t-86 207t86 206.5t207 85.5zM312 241h54q0 35 14.5 64.5t32.5 46.5t32.5 43.5t14.5 56.5q0 93 -117 93q-51 0 -122 -11l3 -45q60 9 119 9q66 0 66 -46q0 -21 -15 -44.5t-33.5 -42.5t-33.5 -52
t-15 -72zM359 171h-39q-7 0 -7 -8v-37q0 -7 7 -7h39q8 0 8 7v37q0 8 -8 8z" />
    <glyph glyph-name="product" unicode="&#x220f;" horiz-adv-x="718" 
d="M683 592h-94v-692h-121v692h-218v-692h-121v692h-94v98h648v-98z" />
    <glyph glyph-name="summation" unicode="&#x2211;" horiz-adv-x="595" 
d="M539 593h-346l153 -253l-167 -368h370v-97h-504v97l166 368l-154 253v97h482v-97z" />
    <glyph glyph-name="minus" unicode="&#x2212;" horiz-adv-x="582" 
d="M516 250h-450v88h450v-88z" />
    <glyph glyph-name="radical" unicode="&#x221a;" horiz-adv-x="574" 
d="M557 876l-237 -868q-3 -8 -13 -8h-143q-11 0 -13 8l-125 482h99l104 -411h13l215 797h100z" />
    <glyph glyph-name="infinity" unicode="&#x221e;" horiz-adv-x="773" 
d="M579 450q61 0 102 -35.5t41 -104.5q0 -72 -44.5 -112t-111.5 -40q-93 0 -178 85q-89 -85 -184 -85q-64 0 -108.5 40.5t-44.5 111.5q0 69 42.5 104.5t108.5 35.5q99 0 186 -89q91 89 191 89zM224 242q56 0 112 61q-28 33 -52 48t-64 15q-69 0 -69 -60q0 -64 73 -64z
M550 242q73 0 73 64q0 60 -68 60q-39 0 -63.5 -17t-51.5 -50q48 -57 110 -57z" />
    <glyph glyph-name="integral" unicode="&#x222b;" horiz-adv-x="363" 
d="M151 -63l-46 644q-4 65 27 99t91 34q70 0 111 -4l-7 -87h-64q-29 0 -41 -14t-10 -50l46 -648q5 -68 -23 -100.5t-100 -32.5q-78 0 -106 4l8 87h61q30 0 42 15t11 53z" />
    <glyph glyph-name="approxequal" unicode="&#x2248;" horiz-adv-x="584" 
d="M148 319h-78q-13 72 17 106t90 31q30 -1 109.5 -26t111.5 -27q23 -1 30 8.5t7 39.5h79q12 -68 -16 -103t-93 -33q-33 1 -112 27t-108 27q-23 1 -30 -9.5t-7 -40.5zM148 125h-78q-13 72 17 106.5t90 31.5q31 -2 110.5 -27t110.5 -27q23 -1 30 9t7 40h79q24 -139 -109 -136
q-33 1 -112 26.5t-108 26.5q-23 1 -30 -9t-7 -41z" />
    <glyph glyph-name="notequal" unicode="&#x2260;" horiz-adv-x="616" 
d="M353 357l-75 -124h255v-88h-308l-75 -123l-31 16l65 107h-102v88h155l75 124h-230v88h284l65 109l32 -16l-56 -93h126v-88h-180z" />
    <glyph glyph-name="lessequal" unicode="&#x2264;" horiz-adv-x="558" 
d="M489 455l-315 -85l315 -79v-95l-419 127v95l419 133v-96zM494 63h-435v90h435v-90z" />
    <glyph glyph-name="greaterequal" unicode="&#x2265;" horiz-adv-x="558" 
d="M488 418v-95l-418 -127v95l314 79l-314 85v96zM500 63h-436v90h436v-90z" />
    <glyph glyph-name="lozenge" unicode="&#x25ca;" horiz-adv-x="570" 
d="M294 691l246 -336q5 -9 0 -18l-246 -338q-8 -12 -17 0l-247 338q-5 9 0 18l247 336q9 12 17 0zM126 346l160 -228l158 228l-158 226z" />
    <glyph glyph-name="c_t" horiz-adv-x="851" 
d="M682 402v-249q0 -32 13 -44.5t46 -12.5h67l13 -90q-53 -17 -126 -17q-64 0 -98.5 37t-35.5 106v270h-254q-76 0 -105 -33t-29 -123q0 -91 29 -124.5t105 -33.5q74 0 134 10l11 -80q-67 -30 -167 -30q-131 0 -185 58t-54 200q0 132 57.5 188t182.5 56h275v141h121v-141
h144v-88h-144z" />
    <glyph glyph-name="f_f_y" horiz-adv-x="1248" 
d="M1235 490l-181 -505q-30 -83 -90 -138t-158 -50l-10 77q58 16 92 43.5t52 71.5l5 11h-24q-32 0 -41 30l-121 334q-13 38 -53 38h-128v-402h-121v402h-225v-402h-121v402h-87v83l87 5v71q0 70 38 109t114 39q84 0 130 -9l-11 -86h-76q-42 0 -58 -14t-16 -55v-55h225v81
q0 72 36 110t117 38q95 0 148 -9l-11 -86h-95q-42 0 -58 -15.5t-16 -53.5v-65h157q107 0 140 -102l75 -235q10 -31 16 -65h15q3 9 19 65l105 337h130z" />
    <glyph glyph-name="f_t" horiz-adv-x="743" 
d="M575 402v-249q0 -32 12.5 -44.5t45.5 -12.5h67l14 -90q-54 -17 -126 -17q-65 0 -99.5 37t-34.5 106v270h-221v-402h-122v402h-87v83l87 5v81q0 72 36 110t117 38q88 0 136 -9l-10 -86h-83q-41 0 -57.5 -15.5t-16.5 -53.5v-65h221v141h121v-141h143v-88h-143z" />
    <glyph glyph-name="f_y" horiz-adv-x="902" 
d="M889 490l-181 -505q-30 -83 -90 -138t-157 -50l-11 77q59 16 92 43.5t52 71.5l5 11h-24q-32 0 -41 30l-121 334q-13 38 -53 38h-127v-402h-122v402h-87v83l87 5v81q0 72 36 110t117 38q96 0 149 -9l-10 -86h-96q-41 0 -57.5 -15.5t-16.5 -53.5v-65h156q107 0 140 -102
l75 -235q12 -38 17 -65h13q17 53 20 65l105 337h130z" />
    <glyph glyph-name="s_t" horiz-adv-x="876" 
d="M707 402v-249q0 -32 13 -44.5t46 -12.5h67l13 -90q-53 -17 -126 -17q-64 0 -99 37.5t-35 105.5v270h-322q-66 0 -85 -6t-19 -32q0 -6 1 -10.5t1.5 -8t3.5 -7t4.5 -5.5t6 -4.5t7 -4t9 -3.5t9.5 -3t12 -3.5t13 -3.5l132 -36q62 -18 88.5 -48.5t26.5 -92.5
q0 -86 -48.5 -115.5t-168.5 -29.5q-110 0 -205 16l8 85q52 -4 167 -4q77 0 103.5 9t26.5 38q0 24 -13.5 33t-47.5 18q-6 1 -9 2l-129 35q-64 18 -89.5 51t-25.5 93q0 72 45 99t155 26h343v141h121v-141h144v-88h-144z" />
    <glyph glyph-name="t_t" horiz-adv-x="761" 
d="M592 402v-249q0 -32 13 -44.5t46 -12.5h67l13 -90q-53 -17 -126 -17q-64 0 -98.5 37t-34.5 106v270h-241v-249q0 -32 13 -44.5t46 -12.5h67l13 -90q-53 -17 -126 -17q-64 0 -98.5 37t-34.5 106v270h-89v83l88 5v141h121v-141h240v141h121v-141h144v-88h-144z" />
    <glyph glyph-name="t_y" horiz-adv-x="923" 
d="M910 490l-182 -505q-29 -83 -89 -138t-158 -50l-10 77q58 16 92 43.5t52 71.5l5 11h-24q-33 0 -41 30l-121 334q-13 38 -53 38h-150v-249q0 -32 13 -44.5t46 -12.5h67l13 -90q-53 -17 -126 -17q-64 0 -98.5 37t-34.5 106v270h-89v83l88 5v141h121v-141h179
q107 0 140 -102l75 -235q10 -31 16 -65h13q7 19 21 65l105 337h130z" />
    <glyph glyph-name="brevecy" horiz-adv-x="385" 
d="M265 698h86q6 -62 -37.5 -104.5t-119.5 -42.5q-77 0 -121 42.5t-38 104.5h86q-1 -84 73 -84q72 0 71 84z" />
    </font>
</defs>
</svg>
